Скачать через торрент музыку Suzanne Vega - Close-Up Vol. 4, Songs Of Family - 2012, FLAC бесплатно без регистрации torrent

Если у вас наблюдаются проблемы со скриншотами, переходом по ссылками, скачиванием торрентов - проблемы в блокировщике рекламы AdBlock. #хорошегоДня!


Статистика раздачи
Размер:  249 MB   |    Зарегистрирован:  4 года 10 месяцев   |    .torrent скачан:  14 раз   |   
Раздают:  1  
   
Загрузка...
 
Автор Сообщение

Galfimbul

avatar Galfimbul


Suzanne Vega / Close-Up Vol. 4, Songs Of Family

Жанр: Acoustic Folk, Pop-Rock
Страна-производитель диска: USA
Год издания: 2012
Издатель (лейбл): Amanuensis Productions
Страна: USA
Аудиокодек: FLAC (*.flac)
Тип рипа: tracks+.cue
Битрейт аудио: lossless
Продолжительность: 00:47:43
Источник (релизер): losslessalbum.net
Наличие сканов в содержимом раздачи: нет

Треклист:

01. Rosemary 02:54
02. Honeymoon Suite 03:13
03. World Before Columbus 03:00
04. As You Are Now 02:28
05. Soap And Water 02:52
06. Widow’s Walk 03:42
07. Blood Sings 03:20
08. Bad Wisdom 03:10
09. Ludlow Street 03:11
10. Tired Of Sleeping 03:47
11. Pilgrimage 04:26
12. Brother Mine 03:14
13. The Silver Lady 05:35
14. Daddy Is White 02:44
X Lossless Decoder version 20120908 (141.1)

XLD extraction logfile from 2012-09-28 10:36:02 +0200

Suzanne Vega / Close Up Vol. 4, Songs of Family

Used drive : MATSHITA DVD-R UJ-8A8 (revision HB14)

Ripper mode : CDParanoia III 10.2Disable audio cache : OK for the drive with a cache less than 2750KiBMake use of C2 pointers : NORead offset correction : 102Max retry count : 20Gap status : Analyzed, Appended

TOC of the extracted CD Track | Start | Length | Start sector | End sector --------------------------------------------------------- 1 | 00:00:00 | 02:54:29 | 0 | 13078 2 | 02:54:29 | 03:13:10 | 13079 | 27563 3 | 06:07:39 | 03:00:68 | 27564 | 41131 4 | 09:08:32 | 02:28:35 | 41132 | 52266 5 | 11:36:67 | 02:52:17 | 52267 | 65183 6 | 14:29:09 | 03:42:03 | 65184 | 81836 7 | 18:11:12 | 03:20:56 | 81837 | 96892 8 | 21:31:68 | 03:10:38 | 96893 | 111180 9 | 24:42:31 | 03:11:24 | 111181 | 125529 10 | 27:53:55 | 03:47:67 | 125530 | 142621 11 | 31:41:47 | 04:26:55 | 142622 | 162626 12 | 36:08:27 | 03:14:45 | 162627 | 177221 13 | 39:22:72 | 05:35:52 | 177222 | 202398 14 | 44:58:49 | 02:43:73 | 202399 | 214696

AccurateRip Summary Disc not found in AccurateRip DB.

All Tracks Album gain : -6.43 dB Peak : 1.000000 Statistics Read error : 0 Skipped (treated as error) : 0 Edge jitter error (maybe fixed) : 0 Atom jitter error (maybe fixed) : 0 Drift error (maybe fixed) : 0 Dropped bytes error (maybe fixed) : 0 Duplicated bytes error (maybe fixed) : 0

Track 01 Filename : /Users/bea/Desktop/Suzanne Vega - Close Up Vol 4 - FLAC/01 - Rosemary.flac Pre-gap length : 00:02:00

Track gain : -6.33 dB Peak : 0.966492 CRC32 hash (test run) : A400129C CRC32 hash : A400129C CRC32 hash (skip zero) : A811DA66 AccurateRip v1 signature : 86B7597A AccurateRip v2 signature : 79DABB34 ->Track not present in AccurateRip database. Statistics Read error : 0 Skipped (treated as error) : 0 Edge jitter error (maybe fixed) : 0 Atom jitter error (maybe fixed) : 0 Drift error (maybe fixed) : 0 Dropped bytes error (maybe fixed) : 0 Duplicated bytes error (maybe fixed) : 0 Inconsistency in error sectors : 0

Track 02 Filename : /Users/bea/Desktop/Suzanne Vega - Close Up Vol 4 - FLAC/02 - Honeymoon Suite.flac Pre-gap length : 00:02:11

Track gain : -6.82 dB Peak : 0.962921 CRC32 hash (test run) : 15CF7905 CRC32 hash : 15CF7905 CRC32 hash (skip zero) : 878D688A AccurateRip v1 signature : CFCCEC10 AccurateRip v2 signature : C65B5668 ->Track not present in AccurateRip database. Statistics Read error : 0 Skipped (treated as error) : 0 Edge jitter error (maybe fixed) : 0 Atom jitter error (maybe fixed) : 0 Drift error (maybe fixed) : 0 Dropped bytes error (maybe fixed) : 0 Duplicated bytes error (maybe fixed) : 0 Inconsistency in error sectors : 0

Track 03 Filename : /Users/bea/Desktop/Suzanne Vega - Close Up Vol 4 - FLAC/03 - World Before Columbus.flac Pre-gap length : 00:01:65

Track gain : -7.22 dB Peak : 0.961517 CRC32 hash (test run) : 79E973A3 CRC32 hash : 79E973A3 CRC32 hash (skip zero) : 8775AE5E AccurateRip v1 signature : 5A1A1EC6 AccurateRip v2 signature : 3D781733 ->Track not present in AccurateRip database. Statistics Read error : 0 Skipped (treated as error) : 0 Edge jitter error (maybe fixed) : 0 Atom jitter error (maybe fixed) : 0 Drift error (maybe fixed) : 0 Dropped bytes error (maybe fixed) : 0 Duplicated bytes error (maybe fixed) : 0 Inconsistency in error sectors : 0

Track 04 Filename : /Users/bea/Desktop/Suzanne Vega - Close Up Vol 4 - FLAC/04 - As You Are Now.flac Pre-gap length : 00:02:50

Track gain : -5.65 dB Peak : 0.989777 CRC32 hash (test run) : 972F07AE CRC32 hash : 972F07AE CRC32 hash (skip zero) : DB6BF3D0 AccurateRip v1 signature : B34890A7 AccurateRip v2 signature : A41A714B ->Track not present in AccurateRip database. Statistics Read error : 0 Skipped (treated as error) : 0 Edge jitter error (maybe fixed) : 0 Atom jitter error (maybe fixed) : 0 Drift error (maybe fixed) : 0 Dropped bytes error (maybe fixed) : 0 Duplicated bytes error (maybe fixed) : 0 Inconsistency in error sectors : 0

Track 05 Filename : /Users/bea/Desktop/Suzanne Vega - Close Up Vol 4 - FLAC/05 - Soap And Water.flac Pre-gap length : 00:02:45

Track gain : -6.74 dB Peak : 0.943512 CRC32 hash (test run) : A2661084 CRC32 hash : A2661084 CRC32 hash (skip zero) : 03F27779 AccurateRip v1 signature : DA6EC865 AccurateRip v2 signature : 6077CD7D ->Track not present in AccurateRip database. Statistics Read error : 0 Skipped (treated as error) : 0 Edge jitter error (maybe fixed) : 0 Atom jitter error (maybe fixed) : 0 Drift error (maybe fixed) : 0 Dropped bytes error (maybe fixed) : 0 Duplicated bytes error (maybe fixed) : 0 Inconsistency in error sectors : 0

Track 06 Filename : /Users/bea/Desktop/Suzanne Vega - Close Up Vol 4 - FLAC/06 - Widow's Walk.flac Pre-gap length : 00:01:20

Track gain : -6.79 dB Peak : 0.988983 CRC32 hash (test run) : D2DDB7CF CRC32 hash : D2DDB7CF CRC32 hash (skip zero) : 13DA69E7 AccurateRip v1 signature : 9D53C6F5 AccurateRip v2 signature : 619217DE ->Track not present in AccurateRip database. Statistics Read error : 0 Skipped (treated as error) : 0 Edge jitter error (maybe fixed) : 0 Atom jitter error (maybe fixed) : 0 Drift error (maybe fixed) : 0 Dropped bytes error (maybe fixed) : 0 Duplicated bytes error (maybe fixed) : 0 Inconsistency in error sectors : 0

Track 07 Filename : /Users/bea/Desktop/Suzanne Vega - Close Up Vol 4 - FLAC/07 - Blood Sings.flac Pre-gap length : 00:02:58

Track gain : -7.10 dB Peak : 0.988800 CRC32 hash (test run) : 8AA875AA CRC32 hash : 8AA875AA CRC32 hash (skip zero) : 29D043E4 AccurateRip v1 signature : 2A2F2096 AccurateRip v2 signature : 1AE90FA0 ->Track not present in AccurateRip database. Statistics Read error : 0 Skipped (treated as error) : 0 Edge jitter error (maybe fixed) : 0 Atom jitter error (maybe fixed) : 0 Drift error (maybe fixed) : 0 Dropped bytes error (maybe fixed) : 0 Duplicated bytes error (maybe fixed) : 0 Inconsistency in error sectors : 0

Track 08 Filename : /Users/bea/Desktop/Suzanne Vega - Close Up Vol 4 - FLAC/08 - Bad Wisdom.flac Pre-gap length : 00:02:41

Track gain : -6.52 dB Peak : 0.989563 CRC32 hash (test run) : 522F4E0D CRC32 hash : 522F4E0D CRC32 hash (skip zero) : CC0F9C2A AccurateRip v1 signature : C262DA14 AccurateRip v2 signature : 59F4401F ->Track not present in AccurateRip database. Statistics Read error : 0 Skipped (treated as error) : 0 Edge jitter error (maybe fixed) : 0 Atom jitter error (maybe fixed) : 0 Drift error (maybe fixed) : 0 Dropped bytes error (maybe fixed) : 0 Duplicated bytes error (maybe fixed) : 0 Inconsistency in error sectors : 0

Track 09 Filename : /Users/bea/Desktop/Suzanne Vega - Close Up Vol 4 - FLAC/09 - Ludlow Street.flac

Track gain : -5.80 dB Peak : 0.990326 CRC32 hash (test run) : 3432B820 CRC32 hash : 3432B820 CRC32 hash (skip zero) : CC67CD38 AccurateRip v1 signature : E439B798 AccurateRip v2 signature : 8CA2E69E ->Track not present in AccurateRip database. Statistics Read error : 0 Skipped (treated as error) : 0 Edge jitter error (maybe fixed) : 0 Atom jitter error (maybe fixed) : 0 Drift error (maybe fixed) : 0 Dropped bytes error (maybe fixed) : 0 Duplicated bytes error (maybe fixed) : 0 Inconsistency in error sectors : 0

Track 10 Filename : /Users/bea/Desktop/Suzanne Vega - Close Up Vol 4 - FLAC/10 - Tired Of Sleeping.flac Pre-gap length : 00:01:28

Track gain : -6.94 dB Peak : 0.999969 CRC32 hash (test run) : C03F3C78 CRC32 hash : C03F3C78 CRC32 hash (skip zero) : 9EF5F4F5 AccurateRip v1 signature : A04E273F AccurateRip v2 signature : 3747B60C ->Track not present in AccurateRip database. Statistics Read error : 0 Skipped (treated as error) : 0 Edge jitter error (maybe fixed) : 0 Atom jitter error (maybe fixed) : 0 Drift error (maybe fixed) : 0 Dropped bytes error (maybe fixed) : 0 Duplicated bytes error (maybe fixed) : 0 Inconsistency in error sectors : 0

Track 11 Filename : /Users/bea/Desktop/Suzanne Vega - Close Up Vol 4 - FLAC/11 - Pilgrimage.flac Pre-gap length : 00:01:60

Track gain : -6.42 dB Peak : 1.000000 CRC32 hash (test run) : 0D7483C0 CRC32 hash : 0D7483C0 CRC32 hash (skip zero) : D4FA0CF4 AccurateRip v1 signature : 6C261EED AccurateRip v2 signature : 98236291 ->Track not present in AccurateRip database. Statistics Read error : 0 Skipped (treated as error) : 0 Edge jitter error (maybe fixed) : 0 Atom jitter error (maybe fixed) : 0 Drift error (maybe fixed) : 0 Dropped bytes error (maybe fixed) : 0 Duplicated bytes error (maybe fixed) : 0 Inconsistency in error sectors : 0

Track 12 Filename : /Users/bea/Desktop/Suzanne Vega - Close Up Vol 4 - FLAC/12 - Brother Mine.flac Pre-gap length : 00:02:70

Track gain : -6.35 dB Peak : 1.000000 CRC32 hash (test run) : 89AF7F24 CRC32 hash : 89AF7F24 CRC32 hash (skip zero) : 65614810 AccurateRip v1 signature : B6AC9C6C AccurateRip v2 signature : 0D6B029D ->Track not present in AccurateRip database. Statistics Read error : 0 Skipped (treated as error) : 0 Edge jitter error (maybe fixed) : 0 Atom jitter error (maybe fixed) : 0 Drift error (maybe fixed) : 0 Dropped bytes error (maybe fixed) : 0 Duplicated bytes error (maybe fixed) : 0 Inconsistency in error sectors : 0

Track 13 Filename : /Users/bea/Desktop/Suzanne Vega - Close Up Vol 4 - FLAC/13 - The Silver Lady.flac Pre-gap length : 00:00:72

Track gain : -4.96 dB Peak : 0.886078 CRC32 hash (test run) : D5241F78 CRC32 hash : D5241F78 CRC32 hash (skip zero) : 964B30F5 AccurateRip v1 signature : 5637BD08 AccurateRip v2 signature : 8C977C05 ->Track not present in AccurateRip database. Statistics Read error : 0 Skipped (treated as error) : 0 Edge jitter error (maybe fixed) : 0 Atom jitter error (maybe fixed) : 0 Drift error (maybe fixed) : 0 Dropped bytes error (maybe fixed) : 0 Duplicated bytes error (maybe fixed) : 0 Inconsistency in error sectors : 0

Track 14 Filename : /Users/bea/Desktop/Suzanne Vega - Close Up Vol 4 - FLAC/14 - Daddy Is White.flac Pre-gap length : 00:01:58

Track gain : -4.02 dB Peak : 1.000000 CRC32 hash (test run) : 3D47FC05 CRC32 hash : 3D47FC05 CRC32 hash (skip zero) : 02417733 AccurateRip v1 signature : 31E522B8 AccurateRip v2 signature : 83EFF865 ->Track not present in AccurateRip database. Statistics Read error : 0 Skipped (treated as error) : 0 Edge jitter error (maybe fixed) : 0 Atom jitter error (maybe fixed) : 0 Drift error (maybe fixed) : 0 Dropped bytes error (maybe fixed) : 0 Duplicated bytes error (maybe fixed) : 0 Inconsistency in error sectors : 0

No errors occurred

End of status report
TITLE "Close Up Vol. 4, Songs of Family"PERFORMER "Suzanne Vega"CATALOG 0698519254023REM GENRE "Pop"REM DATE "2012"REM DISCNUMBER 1REM TOTALDISCS 1REM DISCID C20B2E0EREM REPLAYGAIN_ALBUM_GAIN -6.43 dBREM REPLAYGAIN_ALBUM_PEAK 1.000000FILE "01 - Rosemary.wav" WAVE TRACK 01 AUDIO TITLE "Rosemary" SONGWRITER "Suzanne Vega" ISRC USA6W1225401 REM REPLAYGAIN_TRACK_GAIN -6.33 dB REM REPLAYGAIN_TRACK_PEAK 0.966492 INDEX 01 00:00:00 TRACK 02 AUDIO TITLE "Honeymoon Suite" SONGWRITER "Suzanne Vega" ISRC USA6W1225402 REM REPLAYGAIN_TRACK_GAIN -6.82 dB REM REPLAYGAIN_TRACK_PEAK 0.962921 INDEX 00 02:52:18FILE "02 - Honeymoon Suite.wav" WAVE INDEX 01 00:00:00 TRACK 03 AUDIO TITLE "World Before Columbus" SONGWRITER "Suzanne Vega" ISRC USA6W1225403 REM REPLAYGAIN_TRACK_GAIN -7.22 dB REM REPLAYGAIN_TRACK_PEAK 0.961517 INDEX 00 03:11:20FILE "03 - World Before Columbus.wav" WAVE INDEX 01 00:00:00 TRACK 04 AUDIO TITLE "As You Are Now" SONGWRITER "Anton Sanko/Marc Shulman/Stephen Ferrera/Michael Visceglia" ISRC USA6W1225404 REM REPLAYGAIN_TRACK_GAIN -5.65 dB REM REPLAYGAIN_TRACK_PEAK 0.989777 INDEX 00 02:58:18FILE "04 - As You Are Now.wav" WAVE INDEX 01 00:00:00 TRACK 05 AUDIO TITLE "Soap And Water" SONGWRITER "Suzanne Vega" ISRC USA6W1225405 REM REPLAYGAIN_TRACK_GAIN -6.74 dB REM REPLAYGAIN_TRACK_PEAK 0.943512 INDEX 00 02:25:65FILE "05 - Soap And Water.wav" WAVE INDEX 01 00:00:00 TRACK 06 AUDIO TITLE "Widow's Walk" SONGWRITER "Suzanne Vega" ISRC USA6W1225406 REM REPLAYGAIN_TRACK_GAIN -6.79 dB REM REPLAYGAIN_TRACK_PEAK 0.988983 INDEX 00 02:50:72FILE "06 - Widow's Walk.wav" WAVE INDEX 01 00:00:00 TRACK 07 AUDIO TITLE "Blood Sings" SONGWRITER "Suzanne Vega" ISRC USA6W1225407 REM REPLAYGAIN_TRACK_GAIN -7.10 dB REM REPLAYGAIN_TRACK_PEAK 0.988800 INDEX 00 03:39:20FILE "07 - Blood Sings.wav" WAVE INDEX 01 00:00:00 TRACK 08 AUDIO TITLE "Bad Wisdom" SONGWRITER "Suzanne Vega" ISRC USA6W1225408 REM REPLAYGAIN_TRACK_GAIN -6.52 dB REM REPLAYGAIN_TRACK_PEAK 0.989563 INDEX 00 03:18:15FILE "08 - Bad Wisdom.wav" WAVE INDEX 01 00:00:00FILE "09 - Ludlow Street.wav" WAVE TRACK 09 AUDIO TITLE "Ludlow Street" SONGWRITER "Suzanne Vega" ISRC USA6W1225409 REM REPLAYGAIN_TRACK_GAIN -5.80 dB REM REPLAYGAIN_TRACK_PEAK 0.990326 INDEX 01 00:00:00 TRACK 10 AUDIO TITLE "Tired Of Sleeping" SONGWRITER "Suzanne Vega" ISRC USA6W1225410 REM REPLAYGAIN_TRACK_GAIN -6.94 dB REM REPLAYGAIN_TRACK_PEAK 0.999969 INDEX 00 03:09:71FILE "10 - Tired Of Sleeping.wav" WAVE INDEX 01 00:00:00 TRACK 11 AUDIO TITLE "Pilgrimage" SONGWRITER "Suzanne Vega" ISRC USA6W1225411 REM REPLAYGAIN_TRACK_GAIN -6.42 dB REM REPLAYGAIN_TRACK_PEAK 1.000000 INDEX 00 03:46:07FILE "11 - Pilgrimage.wav" WAVE INDEX 01 00:00:00 TRACK 12 AUDIO TITLE "Brother Mine" SONGWRITER "Suzanne Vega" ISRC USA6W1225413 REM REPLAYGAIN_TRACK_GAIN -6.35 dB REM REPLAYGAIN_TRACK_PEAK 1.000000 INDEX 00 04:23:60FILE "12 - Brother Mine.wav" WAVE INDEX 01 00:00:00 TRACK 13 AUDIO TITLE "The Silver Lady" SONGWRITER "Suzanne Vega" ISRC USA6W1225412 REM REPLAYGAIN_TRACK_GAIN -4.96 dB REM REPLAYGAIN_TRACK_PEAK 0.886078 INDEX 00 03:13:48FILE "13 - The Silver Lady.wav" WAVE INDEX 01 00:00:00 TRACK 14 AUDIO TITLE "Daddy Is White" SONGWRITER "Suzanne Vega" ISRC USA6W1225414 REM REPLAYGAIN_TRACK_GAIN -4.02 dB REM REPLAYGAIN_TRACK_PEAK 1.000000 INDEX 00 05:33:69FILE "14 - Daddy Is White.wav" WAVE INDEX 01 00:00:00


Трекер:  [ 14-Окт-2012 11:10 ]

  

Скачать .torrent

Размер .torrent файла 21 KB


Размер: 249 MB
Хэш (hash) релиза: bca4f7eb6fb0a5315fa5914ae9ef217df00d17a1

Еще никто не оставлял запись к записи скачать торрент Suzanne Vega - Close-Up Vol. 4, Songs Of Family - 2012, FLAC . Будь первым!

!Обратная связь