Скачать через торрент музыку VA - Good Morning Vietnam 3CD BOX - 2005, FLAC бесплатно без регистрации torrent

Если у вас наблюдаются проблемы со скриншотами, переходом по ссылками, скачиванием торрентов - проблемы в блокировщике рекламы AdBlock. #хорошегоДня!


Статистика раздачи
Размер:  1.08 GB   |    Зарегистрирован:  5 лет   |    .torrent скачан:  18 раз   |   
Раздают:  1  
   
Загрузка...
 
Автор Сообщение

Galfimbul

avatar Galfimbul


Жанр: Rock & Roll, Soft Rock, Pop Rock, Classic Rock
Страна-производитель диска: EU
Год издания: 2005
Издатель (лейбл): Disky Communications Europe
Номер по каталогу: CB 903449
Аудиокодек: FLAC (*.flac)
Тип рипа: image+.cue
Битрейт аудио: lossless
Продолжительность: 03:12:55
Источник (релизер): мой рип
Наличие сканов в содержимом раздачи: да
[03:09] 01. FLEETWOOD MAC - Albatross
[06:15] 02. ARGENT - Hold your head up
[03:37] 03. IKE & TINA TURNER - River deep mountain high
[04:24] 04. DEEP PURPLE - Hush
[04:56] 05. BOOKER T. & MG'S - Time is tight
[03:04] 06. EDDIE FLOYD - Knock on wood
[02:50] 07. THE BEE GEES - Spicks and specks
[03:37] 08. THE BEACH BOYS - Good vibrations
[03:50] 09. SPIRIT - Mr Skin
[03:03] 10. EDGAR WINTER GROUP - Frakenstein
[02:12] 11. DONOVAN - Universal Soldier
[03:32] 12. THE BAND - The night they drove old dixie down
[02:42] 13. MERLE HAGGARD & THE STRANGERS - Okie from Muskogee
[02:06] 14. BOBBY GENTRY - Son of a preacher man
[04:32] 15. JONNIE TAYLOR - I believe in you (you believe in me?)
[03:11] 16. CHER - Sunny
[02:45] 17. JOE TEX - When Johnny comes marching home
[03:17] 18. RUFUS THOMAS - The Breakdown part 1 3, 17
[03:00] 01. SCOTT MCKENZIE - San Francisco
[03:49] 02. YOUNGBLOODS - Darkness darkness
[04:58] 03. ATLANTA RHYTHM SECTION - Spooky
[04:36] 04. THE BAND - The weight
[03:21] 05. SMALL FACES - Tin soldier
[03:14] 06. THE ANIMALS - We've gotta get out of this place
[02:53] 07. CANNED HEAT - Goin' up the country
[02:27] 08. JIM CROCE - Time in a bottle
[04:31] 09. STAPLE SINGERS - Respect yourself
[04:36] 10. ISAAC HAYES - Theme from Shaft
[03:53] 11. CURTIS MAYFIELD - Superfly
[03:23] 12. FREDA PAYNE - Bring the boys home
[02:41] 13. THE SHIRELLES - Solder boy
[03:28] 14. TIMMY THOMAS - Why can't we live together
[03:03] 15. THE KINGSTON TRIO - Wher have all the flowers gone
[03:33] 16. THE FLOWERPOT MEN - Let's go to San Francisco
[03:55] 17. 5TH DIMENSION - Aquarius-Let the sunshine in
[09:06] 18. JIMI HENDRIX - Voodoo chile (live)
[02:48] 01. BLACK SABBATH - Paranoid
[06:08] 02. IT'S A BEAUTIFUL DAY - White bird
[03:28] 03. ATLANTA RHYTHM SECTION - Doraville
[03:14] 04. THE HERD - From the underworld
[02:26] 05. LEMON PIPERS - Green tambourine
[04:14] 06. HUMBLE PIE - Natural born boogie
[02:23] 07. THE TURTLES - Let me be
[02:48] 08. SMALL FACES - Itchycoo park
[02:14] 09. THE SEARCHERS - Sugar and spice
[02:45] 10. CHER - Bang bang (my baby shot me down)
[03:28] 11. CHRIS FARLOW - Paint it black
[02:57] 12. ROD MCKUEN - Soldiers who want to be heros
[03:16] 13. DION - Abraham, Martin and John
[02:46] 14. ALBERT KING - Born under a bad sign
[02:51] 15. BOOKER T & MG'S - Green onions
[04:59] 16. CURTIS MAYFIELD - Pusherman
[03:19] 17. MEL & TIM - Mail call time
[03:00] 18. JOE TEX - I belive I'm gonna make it
Exact Audio Copy V1.0 beta 3 from 29. August 2011

Отчёт EAC об извлечении, выполненном 4. октября 2012, 0:12

Various / Good Morning Vietnam CD 1

Дисковод: HL-DT-STDVD-RAM GH22NP21 Adapter: 0 ID: 0

Режим чтения : Достоверность
Использование точного потока : Да
Отключение кэша аудио : Да
Использование указателей C2 : Нет

Коррекция смещения при чтении : 102
Способность читать области Lead-in и Lead-out : Нет
Заполнение пропущенных сэмплов тишиной : Да
Удаление блоков с тишиной в начале и конце : Нет
При вычислениях CRC использовались нулевые сэмплы : Да
Интерфейс : Встроенный Win32-интерфейс для Win NT/2000

Выходной формат : Пользовательский кодировщик
Выбранный битрейт : 1024 kBit/s
Качество : Высокий
Добавление ID3-тега : Нет
Утилита сжатия : C:\Program Files\Exact Audio Copy\FLAC\FLAC.EXE
Дополнительные параметры : -8 -V -T "ARTIST=%artist%" -T "TITLE=%title%" -T "ALBUM=%albumtitle%" -T "DATE=%year%" -T "TRACKNUMBER=%tracknr%" -T "GENRE=%genre%" -T "COMMENT=%comment%" %hascover%--picture="%coverfile%"%hascover% %source% -o %dest%

TOC извлечённого CD

Трек | Старт | Длительность | Начальный сектор | Конечный сектор
---------------------------------------------------------------------
1 | 0:00.00 | 3:09.07 | 0 | 14181
2 | 3:09.07 | 6:15.59 | 14182 | 42365
3 | 9:24.66 | 3:37.14 | 42366 | 58654
4 | 13:02.05 | 4:24.42 | 58655 | 78496
5 | 17:26.47 | 4:56.52 | 78497 | 100748
6 | 22:23.24 | 3:04.39 | 100749 | 114587
7 | 25:27.63 | 2:50.44 | 114588 | 127381
8 | 28:18.32 | 3:37.06 | 127382 | 143662
9 | 31:55.38 | 3:50.51 | 143663 | 160963
10 | 35:46.14 | 3:03.45 | 160964 | 174733
11 | 38:49.59 | 2:12.47 | 174734 | 184680
12 | 41:02.31 | 3:32.37 | 184681 | 200617
13 | 44:34.68 | 2:42.43 | 200618 | 212810
14 | 47:17.36 | 2:06.10 | 212811 | 222270
15 | 49:23.46 | 4:32.17 | 222271 | 242687
16 | 53:55.63 | 3:11.01 | 242688 | 257013
17 | 57:06.64 | 2:45.60 | 257014 | 269448
18 | 59:52.49 | 3:17.17 | 269449 | 284240

Характеристики диапазона извлечения и сообщения об ошибках

Выбранный диапазон

Имя файла D:\Раздачи на torrents.ru\VA - Good Morning Vietnam 3CD BOX.2005(lossless)\CD1\Various - Good Morning Vietnam CD 1.wav

Пиковый уровень 100.0 %
Скорость извлечения 2.8 X
Качество диапазона 100.0 %
CRC теста ABCA5FD3
CRC копии ABCA5FD3
Копирование... OK

Ошибок не произошло

AccurateRip: сводка

Трек 1 точность не определена (достоверность 2) [0E9BA098], AccurateRip вернул [29DE4DB0] (AR v2)
Трек 2 точность не определена (достоверность 2) [E1387820], AccurateRip вернул [9AF31BC2] (AR v2)
Трек 3 точность не определена (достоверность 2) [597892BF], AccurateRip вернул [716845EF] (AR v2)
Трек 4 точность не определена (достоверность 2) [851473F0], AccurateRip вернул [A554B739] (AR v2)
Трек 5 точность не определена (достоверность 2) [43F44930], AccurateRip вернул [51A47C80] (AR v2)
Трек 6 точность не определена (достоверность 2) [DBA7F73B], AccurateRip вернул [C17D8EC2] (AR v2)
Трек 7 точность не определена (достоверность 2) [085FCA82], AccurateRip вернул [937BFD29] (AR v2)
Трек 8 точность не определена (достоверность 2) [83A36AB2], AccurateRip вернул [16D767CE] (AR v2)
Трек 9 точность не определена (достоверность 2) [1C2497B5], AccurateRip вернул [0E4123C8] (AR v2)
Трек 10 точность не определена (достоверность 2) [3723B0B4], AccurateRip вернул [50D378BE] (AR v2)
Трек 11 точность не определена (достоверность 2) [265EA867], AccurateRip вернул [557B156A] (AR v2)
Трек 12 точность не определена (достоверность 2) [BC01D169], AccurateRip вернул [F924517C] (AR v2)
Трек 13 точность не определена (достоверность 2) [BC42CBF8], AccurateRip вернул [E1940490] (AR v2)
Трек 14 точность не определена (достоверность 2) [282DB339], AccurateRip вернул [26CDE54B] (AR v2)
Трек 15 точность не определена (достоверность 2) [FC043717], AccurateRip вернул [00CD688B] (AR v2)
Трек 16 точность не определена (достоверность 2) [ABB2D37D], AccurateRip вернул [2BBE2E0A] (AR v2)
Трек 17 точность не определена (достоверность 2) [ED3F6707], AccurateRip вернул [DECCA862] (AR v2)
Трек 18 точность не определена (достоверность 2) [C500342A], AccurateRip вернул [225EB39E] (AR v2)

Ни один трек не прошёл проверки на точность
В вашей базе может быть иной вариант штамповки диска

Конец отчёта

==== Контрольная сумма отчёта 2100C1C0F14EF2D53C386234A03787A1605D525E7518CB9DF7E22DB7F156A1DA ====
Exact Audio Copy V1.0 beta 3 from 29. August 2011

Отчёт EAC об извлечении, выполненном 4. октября 2012, 8:49

Various / Good Morning Vietnam CD 2

Дисковод: HL-DT-STDVD-RAM GH22NP21 Adapter: 0 ID: 0

Режим чтения : Достоверность
Использование точного потока : Да
Отключение кэша аудио : Да
Использование указателей C2 : Нет

Коррекция смещения при чтении : 102
Способность читать области Lead-in и Lead-out : Нет
Заполнение пропущенных сэмплов тишиной : Да
Удаление блоков с тишиной в начале и конце : Нет
При вычислениях CRC использовались нулевые сэмплы : Да
Интерфейс : Встроенный Win32-интерфейс для Win NT/2000

Выходной формат : Пользовательский кодировщик
Выбранный битрейт : 1024 kBit/s
Качество : Высокий
Добавление ID3-тега : Нет
Утилита сжатия : C:\Program Files\Exact Audio Copy\FLAC\FLAC.EXE
Дополнительные параметры : -8 -V -T "ARTIST=%artist%" -T "TITLE=%title%" -T "ALBUM=%albumtitle%" -T "DATE=%year%" -T "TRACKNUMBER=%tracknr%" -T "GENRE=%genre%" -T "COMMENT=%comment%" %hascover%--picture="%coverfile%"%hascover% %source% -o %dest%

TOC извлечённого CD

Трек | Старт | Длительность | Начальный сектор | Конечный сектор
---------------------------------------------------------------------
1 | 0:00.00 | 3:00.19 | 0 | 13518
2 | 3:00.19 | 3:49.73 | 13519 | 30766
3 | 6:50.17 | 4:58.06 | 30767 | 53122
4 | 11:48.23 | 4:36.16 | 53123 | 73838
5 | 16:24.39 | 3:21.32 | 73839 | 88945
6 | 19:45.71 | 3:14.25 | 88946 | 103520
7 | 23:00.21 | 2:53.39 | 103521 | 116534
8 | 25:53.60 | 2:27.48 | 116535 | 127607
9 | 28:21.33 | 4:31.16 | 127608 | 147948
10 | 32:52.49 | 4:36.70 | 147949 | 168718
11 | 37:29.44 | 3:53.11 | 168719 | 186204
12 | 41:22.55 | 3:23.29 | 186205 | 201458
13 | 44:46.09 | 2:41.30 | 201459 | 213563
14 | 47:27.39 | 3:28.38 | 213564 | 229201
15 | 50:56.02 | 3:03.36 | 229202 | 242962
16 | 53:59.38 | 3:33.56 | 242963 | 258993
17 | 57:33.19 | 3:55.33 | 258994 | 276651
18 | 61:28.52 | 9:06.44 | 276652 | 317645

Характеристики диапазона извлечения и сообщения об ошибках

Выбранный диапазон

Имя файла D:\Раздачи на torrents.ru\VA - Good Morning Vietnam 3CD BOX.2005(lossless)\CD2\Various - Good Morning Vietnam CD 2.wav

Пиковый уровень 100.0 %
Скорость извлечения 2.8 X
Качество диапазона 100.0 %
CRC теста BCD4EF88
CRC копии BCD4EF88
Копирование... OK

Ошибок не произошло

AccurateRip: сводка

Трек 1 точность не определена (достоверность 2) [E075F936], AccurateRip вернул [230A4322] (AR v2)
Трек 2 точность не определена (достоверность 2) [8303DFB2], AccurateRip вернул [734FC579] (AR v2)
Трек 3 точность не определена (достоверность 2) [B48F54C2], AccurateRip вернул [CC95E652] (AR v2)
Трек 4 точность не определена (достоверность 2) [47E42DDD], AccurateRip вернул [5F004E43] (AR v2)
Трек 5 точность не определена (достоверность 2) [16C5D88E], AccurateRip вернул [9F8E4E4D] (AR v2)
Трек 6 точность не определена (достоверность 2) [43DE641B], AccurateRip вернул [58C8A9C6] (AR v2)
Трек 7 точность не определена (достоверность 2) [8909E358], AccurateRip вернул [F4C9D8FC] (AR v2)
Трек 8 точность не определена (достоверность 2) [B985DAAB], AccurateRip вернул [8CC767FD] (AR v2)
Трек 9 точность не определена (достоверность 2) [06F0139A], AccurateRip вернул [7223B9A4] (AR v2)
Трек 10 точность не определена (достоверность 2) [7235E97D], AccurateRip вернул [1A6A2F31] (AR v2)
Трек 11 точность не определена (достоверность 2) [2BBF92BE], AccurateRip вернул [5E9AF350] (AR v2)
Трек 12 точность не определена (достоверность 2) [CF9C1F53], AccurateRip вернул [62270A0A] (AR v2)
Трек 13 точность не определена (достоверность 2) [B95DAD2E], AccurateRip вернул [9E485FAD] (AR v2)
Трек 14 точность не определена (достоверность 2) [08CD9C5D], AccurateRip вернул [AF881AC7] (AR v2)
Трек 15 точность не определена (достоверность 2) [7057325C], AccurateRip вернул [6484858E] (AR v2)
Трек 16 точность не определена (достоверность 2) [7D60DCBE], AccurateRip вернул [6BED7529] (AR v2)
Трек 17 точность не определена (достоверность 2) [58440914], AccurateRip вернул [E1D234B3] (AR v2)
Трек 18 точность не определена (достоверность 2) [FD06352A], AccurateRip вернул [82434850] (AR v2)

Ни один трек не прошёл проверки на точность
В вашей базе может быть иной вариант штамповки диска

Конец отчёта

==== Контрольная сумма отчёта 1EF13D1B891CC93C2C1985ECD3B121D917FF3182E8282937759811565E50857E ====
Exact Audio Copy V1.0 beta 3 from 29. August 2011

Отчёт EAC об извлечении, выполненном 4. октября 2012, 14:23

Various / Good Morning Vietnam CD 3

Дисковод: HL-DT-STDVD-RAM GH22NP21 Adapter: 0 ID: 0

Режим чтения : Достоверность
Использование точного потока : Да
Отключение кэша аудио : Да
Использование указателей C2 : Нет

Коррекция смещения при чтении : 102
Способность читать области Lead-in и Lead-out : Нет
Заполнение пропущенных сэмплов тишиной : Да
Удаление блоков с тишиной в начале и конце : Нет
При вычислениях CRC использовались нулевые сэмплы : Да
Интерфейс : Встроенный Win32-интерфейс для Win NT/2000

Выходной формат : Пользовательский кодировщик
Выбранный битрейт : 1024 kBit/s
Качество : Высокий
Добавление ID3-тега : Нет
Утилита сжатия : C:\Program Files\Exact Audio Copy\FLAC\FLAC.EXE
Дополнительные параметры : -8 -V -T "ARTIST=%artist%" -T "TITLE=%title%" -T "ALBUM=%albumtitle%" -T "DATE=%year%" -T "TRACKNUMBER=%tracknr%" -T "GENRE=%genre%" -T "COMMENT=%comment%" %hascover%--picture="%coverfile%"%hascover% %source% -o %dest%

TOC извлечённого CD

Трек | Старт | Длительность | Начальный сектор | Конечный сектор
---------------------------------------------------------------------
1 | 0:00.00 | 2:48.49 | 0 | 12648
2 | 2:48.49 | 6:08.27 | 12649 | 40275
3 | 8:57.01 | 3:28.20 | 40276 | 55895
4 | 12:25.21 | 3:14.32 | 55896 | 70477
5 | 15:39.53 | 2:26.57 | 70478 | 81484
6 | 18:06.35 | 4:14.36 | 81485 | 100570
7 | 22:20.71 | 2:23.01 | 100571 | 111296
8 | 24:43.72 | 2:48.12 | 111297 | 123908
9 | 27:32.09 | 2:14.55 | 123909 | 134013
10 | 29:46.64 | 2:45.08 | 134014 | 146396
11 | 32:31.72 | 3:28.02 | 146397 | 161998
12 | 35:59.74 | 2:57.20 | 161999 | 175293
13 | 38:57.19 | 3:16.15 | 175294 | 190008
14 | 42:13.34 | 2:46.00 | 190009 | 202458
15 | 44:59.34 | 2:51.71 | 202459 | 215354
16 | 47:51.30 | 4:59.19 | 215355 | 237798
17 | 52:50.49 | 3:19.38 | 237799 | 252761
18 | 56:10.12 | 3:00.37 | 252762 | 266298

Характеристики диапазона извлечения и сообщения об ошибках

Выбранный диапазон

Имя файла D:\Раздачи на torrents.ru\VA - Good Morning Vietnam 3CD BOX.2005(lossless)\CD3\Various - Good Morning Vietnam CD 3.wav

Пиковый уровень 100.0 %
Скорость извлечения 2.7 X
Качество диапазона 100.0 %
CRC теста 680EDAE3
CRC копии 680EDAE3
Копирование... OK

Ошибок не произошло

AccurateRip: сводка

Трек 1 точность не определена (достоверность 2) [AB589A25], AccurateRip вернул [C686EAE8] (AR v2)
Трек 2 точность не определена (достоверность 2) [35B65B54], AccurateRip вернул [751B525D] (AR v2)
Трек 3 точность не определена (достоверность 2) [305FA245], AccurateRip вернул [F43EC7E7] (AR v2)
Трек 4 точность не определена (достоверность 2) [4D2B887B], AccurateRip вернул [0AB89AA8] (AR v2)
Трек 5 точность не определена (достоверность 2) [219E8878], AccurateRip вернул [1530AE44] (AR v2)
Трек 6 точность не определена (достоверность 2) [87564E9F], AccurateRip вернул [382DBF52] (AR v2)
Трек 7 точность не определена (достоверность 2) [EB280B70], AccurateRip вернул [01F6AF09] (AR v2)
Трек 8 точность не определена (достоверность 2) [45FE2D94], AccurateRip вернул [7A5DE704] (AR v2)
Трек 9 точность не определена (достоверность 2) [421D6BFD], AccurateRip вернул [50C2707A] (AR v2)
Трек 10 точность не определена (достоверность 2) [F12ECE41], AccurateRip вернул [1F610B0B] (AR v2)
Трек 11 точность не определена (достоверность 2) [26654FF6], AccurateRip вернул [A48A82FE] (AR v2)
Трек 12 точность не определена (достоверность 2) [4A840805], AccurateRip вернул [AC245F66] (AR v2)
Трек 13 точность не определена (достоверность 2) [BFBD4A3C], AccurateRip вернул [EDE44D9C] (AR v2)
Трек 14 точность не определена (достоверность 2) [89083404], AccurateRip вернул [D253FBD8] (AR v2)
Трек 15 точность не определена (достоверность 2) [6E027549], AccurateRip вернул [2F49599A] (AR v2)
Трек 16 точность не определена (достоверность 2) [EC41ACBC], AccurateRip вернул [45F2A273] (AR v2)
Трек 17 точность не определена (достоверность 2) [930C40B1], AccurateRip вернул [12277D00] (AR v2)
Трек 18 точность не определена (достоверность 2) [F783D415], AccurateRip вернул [9AFAF26D] (AR v2)

Ни один трек не прошёл проверки на точность
В вашей базе может быть иной вариант штамповки диска

Конец отчёта

==== Контрольная сумма отчёта FF183BF85FBD6E7F397DD66E256F5D4223C10D39630B1C0BE2B85A07691D6366 ====
REM GENRE Rock
REM DATE 2005
REM DISCID 150ECD12
REM COMMENT "ExactAudioCopy v1.0b3"
PERFORMER "Various"
TITLE "Good Morning Vietnam CD 1"
FILE "Various - Good Morning Vietnam CD 1.flac" WAVE
TRACK 01 AUDIO
TITLE "Albatross"
PERFORMER "FLEETWOOD MAC"
INDEX 01 00:00:00
TRACK 02 AUDIO
TITLE "Hold your head up"
PERFORMER "ARGENT"
INDEX 00 03:07:07
INDEX 01 03:09:07
TRACK 03 AUDIO
TITLE "River deep mountain high"
PERFORMER "IKE & TINA TURNER"
INDEX 00 09:22:66
INDEX 01 09:24:66
TRACK 04 AUDIO
TITLE "Hush"
PERFORMER "DEEP PURPLE"
INDEX 00 13:00:05
INDEX 01 13:02:05
TRACK 05 AUDIO
TITLE "Time is tight"
PERFORMER "BOOKER T. & MG'S"
INDEX 00 17:24:47
INDEX 01 17:26:47
TRACK 06 AUDIO
TITLE "Knock on wood"
PERFORMER "EDDIE FLOYD"
INDEX 00 22:21:24
INDEX 01 22:23:24
TRACK 07 AUDIO
TITLE "Spicks and specks"
PERFORMER "THE BEE GEES"
INDEX 00 25:25:63
INDEX 01 25:27:63
TRACK 08 AUDIO
TITLE "Good vibrations"
PERFORMER "THE BEACH BOYS"
INDEX 00 28:16:32
INDEX 01 28:18:32
TRACK 09 AUDIO
TITLE "Mr Skin"
PERFORMER "SPIRIT"
INDEX 00 31:53:38
INDEX 01 31:55:38
TRACK 10 AUDIO
TITLE "Frakenstein"
PERFORMER "EDGAR WINTER GROUP"
INDEX 00 35:44:14
INDEX 01 35:46:14
TRACK 11 AUDIO
TITLE "Universal Soldier"
PERFORMER "DONOVAN"
INDEX 00 38:47:59
INDEX 01 38:49:59
TRACK 12 AUDIO
TITLE "The night they drove old dixie down"
PERFORMER "THE BAND"
INDEX 00 41:00:31
INDEX 01 41:02:31
TRACK 13 AUDIO
TITLE "Okie from Muskogee"
PERFORMER "MERLE HAGGARD & THE STRANGERS"
INDEX 00 44:32:68
INDEX 01 44:34:68
TRACK 14 AUDIO
TITLE "Son of a preacher man"
PERFORMER "BOBBY GENTRY"
INDEX 00 47:15:36
INDEX 01 47:17:36
TRACK 15 AUDIO
TITLE "I believe in you (you believe in me?)"
PERFORMER "JONNIE TAYLOR"
INDEX 00 49:21:46
INDEX 01 49:23:46
TRACK 16 AUDIO
TITLE "Sunny"
PERFORMER "CHER"
INDEX 00 53:53:63
INDEX 01 53:55:63
TRACK 17 AUDIO
TITLE "When Johnny comes marching home"
PERFORMER "JOE TEX"
INDEX 00 57:04:64
INDEX 01 57:06:64
TRACK 18 AUDIO
TITLE "The Breakdown part 1 3, 17"
PERFORMER "RUFUS THOMAS"
INDEX 00 59:50:49
INDEX 01 59:52:49
REM GENRE Rock
REM DATE 2005
REM DISCID 0B108B12
REM COMMENT "ExactAudioCopy v1.0b3"
PERFORMER "Various"
TITLE "Good Morning Vietnam CD 2"
FILE "Various - Good Morning Vietnam CD 2.flac" WAVE
TRACK 01 AUDIO
TITLE "San Francisco"
PERFORMER "SCOTT MCKENZIE"
INDEX 01 00:00:00
TRACK 02 AUDIO
TITLE "Darkness darkness"
PERFORMER "YOUNGBLOODS"
INDEX 00 02:58:19
INDEX 01 03:00:19
TRACK 03 AUDIO
TITLE "Spooky"
PERFORMER "ATLANTA RHYTHM SECTION"
INDEX 00 06:48:17
INDEX 01 06:50:17
TRACK 04 AUDIO
TITLE "The weight"
PERFORMER "THE BAND"
INDEX 00 11:46:23
INDEX 01 11:48:23
TRACK 05 AUDIO
TITLE "Tin soldier"
PERFORMER "SMALL FACES"
INDEX 00 16:22:39
INDEX 01 16:24:39
TRACK 06 AUDIO
TITLE "We've gotta get out of this place"
PERFORMER "THE ANIMALS"
INDEX 00 19:43:71
INDEX 01 19:45:71
TRACK 07 AUDIO
TITLE "Goin' up the country"
PERFORMER "CANNED HEAT"
INDEX 00 22:58:21
INDEX 01 23:00:21
TRACK 08 AUDIO
TITLE "Time in a bottle"
PERFORMER "JIM CROCE"
INDEX 00 25:51:60
INDEX 01 25:53:60
TRACK 09 AUDIO
TITLE "Respect yourself"
PERFORMER "STAPLE SINGERS"
INDEX 00 28:19:33
INDEX 01 28:21:33
TRACK 10 AUDIO
TITLE "Theme from Shaft"
PERFORMER "ISAAC HAYES"
INDEX 00 32:50:49
INDEX 01 32:52:49
TRACK 11 AUDIO
TITLE "Superfly"
PERFORMER "CURTIS MAYFIELD"
INDEX 00 37:27:44
INDEX 01 37:29:44
TRACK 12 AUDIO
TITLE "Bring the boys home"
PERFORMER "FREDA PAYNE"
INDEX 00 41:20:55
INDEX 01 41:22:55
TRACK 13 AUDIO
TITLE "Solder boy"
PERFORMER "THE SHIRELLES"
INDEX 00 44:44:09
INDEX 01 44:46:09
TRACK 14 AUDIO
TITLE "Why can't we live together"
PERFORMER "TIMMY THOMAS"
INDEX 00 47:25:39
INDEX 01 47:27:39
TRACK 15 AUDIO
TITLE "Wher have all the flowers gone"
PERFORMER "THE KINGSTON TRIO"
INDEX 00 50:54:02
INDEX 01 50:56:02
TRACK 16 AUDIO
TITLE "Let's go to San Francisco"
PERFORMER "THE FLOWERPOT MEN"
INDEX 00 53:57:38
INDEX 01 53:59:38
TRACK 17 AUDIO
TITLE "Aquarius-Let the sunshine in"
PERFORMER "5TH DIMENSION"
INDEX 00 57:31:19
INDEX 01 57:33:19
TRACK 18 AUDIO
TITLE "Voodoo chile (live)"
PERFORMER "JIMI HENDRIX"
INDEX 00 61:26:52
INDEX 01 61:28:52
REM GENRE Rock
REM DATE 2005
REM DISCID 070DDE12
REM COMMENT "ExactAudioCopy v1.0b3"
PERFORMER "Various"
TITLE "Good Morning Vietnam CD 3"
FILE "Various - Good Morning Vietnam CD 3.flac" WAVE
TRACK 01 AUDIO
TITLE "Paranoid"
PERFORMER "BLACK SABBATH"
INDEX 01 00:00:00
TRACK 02 AUDIO
TITLE "White bird"
PERFORMER "IT'S A BEAUTIFUL DAY"
INDEX 00 02:46:49
INDEX 01 02:48:49
TRACK 03 AUDIO
TITLE "Doraville"
PERFORMER "ATLANTA RHYTHM SECTION"
INDEX 00 08:55:01
INDEX 01 08:57:01
TRACK 04 AUDIO
TITLE "From the underworld"
PERFORMER "THE HERD"
INDEX 00 12:23:21
INDEX 01 12:25:21
TRACK 05 AUDIO
TITLE "Green tambourine"
PERFORMER "LEMON PIPERS"
INDEX 00 15:37:53
INDEX 01 15:39:53
TRACK 06 AUDIO
TITLE "Natural born boogie"
PERFORMER "HUMBLE PIE"
INDEX 00 18:04:35
INDEX 01 18:06:35
TRACK 07 AUDIO
TITLE "Let me be"
PERFORMER "THE TURTLES"
INDEX 00 22:18:71
INDEX 01 22:20:71
TRACK 08 AUDIO
TITLE "Itchycoo park"
PERFORMER "SMALL FACES"
INDEX 00 24:41:72
INDEX 01 24:43:72
TRACK 09 AUDIO
TITLE "Sugar and spice"
PERFORMER "THE SEARCHERS"
INDEX 00 27:30:09
INDEX 01 27:32:09
TRACK 10 AUDIO
TITLE "Bang bang (my baby shot me down)"
PERFORMER "CHER"
INDEX 00 29:44:64
INDEX 01 29:46:64
TRACK 11 AUDIO
TITLE "Paint it black"
PERFORMER "CHRIS FARLOW"
INDEX 00 32:29:72
INDEX 01 32:31:72
TRACK 12 AUDIO
TITLE "Soldiers who want to be heros"
PERFORMER "ROD MCKUEN"
INDEX 00 35:57:74
INDEX 01 35:59:74
TRACK 13 AUDIO
TITLE "Abraham, Martin and John"
PERFORMER "DION"
INDEX 00 38:55:19
INDEX 01 38:57:19
TRACK 14 AUDIO
TITLE "Born under a bad sign"
PERFORMER "ALBERT KING"
INDEX 00 42:11:34
INDEX 01 42:13:34
TRACK 15 AUDIO
TITLE "Green onions"
PERFORMER "BOOKER T & MG'S"
INDEX 00 44:57:34
INDEX 01 44:59:34
TRACK 16 AUDIO
TITLE "Pusherman"
PERFORMER "CURTIS MAYFIELD"
INDEX 00 47:49:30
INDEX 01 47:51:30
TRACK 17 AUDIO
TITLE "Mail call time"
PERFORMER "MEL & TIM"
INDEX 00 52:48:49
INDEX 01 52:50:49
TRACK 18 AUDIO
TITLE "I belive I'm gonna make it"
PERFORMER "JOE TEX"
INDEX 00 56:04:72
INDEX 01 56:10:12


Трекер:  [ 14-Окт-2012 11:10 ]

  

Скачать .torrent

Размер .torrent файла 13 KB


Размер: 1.08 GB
Хэш (hash) релиза: bc3d38f04f19b9039b0a1ae59448bc64179de495

Еще никто не оставлял запись к записи скачать торрент VA - Good Morning Vietnam 3CD BOX - 2005, FLAC . Будь первым!

!Обратная связь