Скачать через торрент музыку Pink Floyd - Дискография бесплатно без регистрации torrent

Если у вас наблюдаются проблемы со скриншотами, переходом по ссылками, скачиванием торрентов - проблемы в блокировщике рекламы AdBlock. #хорошегоДня!


Статистика раздачи
Размер:  13.76 GB   |    Зарегистрирован:  4 года 10 месяцев   |    .torrent скачан:  97 раз   |   
Раздают:  1  
   
Загрузка...
 
Автор Сообщение

Galfimbul

avatar Galfimbul


Pink Floyd / Дискография [Digital Remaster]

Жанр: Progressive Rock
Год издания: 1967-2011
Издатель (лейбл): The different
Номер по каталогу: The different
Страна: UK
Аудиокодек: FLAC (*.flac)
Тип рипа: image+.cue
Битрейт аудио: lossless
Продолжительность: Very long
Источник (релизер): Только диски из собственной коллекции
Наличие сканов в содержимом раздачи: да

Studio albums
Треклист:
01. Astronomy Domine 4:15
02. Lucifer Sam 3:09
03. Matilda Mother 3:05
04. Flaming 2:47
05. Pow R. Toc H. 4:25
06. Take Up Thy Stethoscope And Walk 3:07
07. Interstellar Overdrive 9:42
08. The Gnome 2:14
09. Chapter 24 3:53
10. The Scarecrow 2:11
11. Bike 3:27
Exact Audio Copy V1.0 beta 3 from 29. August 2011

Отчёт EAC об извлечении, выполненном 18. февраля 2012, 10:18

Pink Floyd / The Piper At The Gates Of Dawn [40th Anniversary Edition] (Disc 1)

Дисковод: Optiarc DVD RW AD-7200A Adapter: 4 ID: 0

Режим чтения : Достоверность
Использование точного потока : Да
Отключение кэша аудио : Да
Использование указателей C2 : Нет

Коррекция смещения при чтении : 48
Способность читать области Lead-in и Lead-out : Нет
Заполнение пропущенных сэмплов тишиной : Да
Удаление блоков с тишиной в начале и конце : Нет
При вычислениях CRC использовались нулевые сэмплы : Да
Интерфейс : Встроенный Win32-интерфейс для Win NT/2000

Выходной формат : Пользовательский кодировщик
Выбранный битрейт : 128 kBit/s
Качество : Высокий
Добавление ID3-тега : Нет
Утилита сжатия : C:\Program Files (x86)\Exact Audio Copy\FLAC\FLAC.EXE
Дополнительные параметры : -V -8 -T "Date=%year%" -T "Genre=%genre%" %source%

TOC извлечённого CD

Трек | Старт | Длительность | Начальный сектор | Конечный сектор
---------------------------------------------------------------------
1 | 0:00.00 | 4:15.00 | 0 | 19124
2 | 4:15.00 | 3:09.30 | 19125 | 33329
3 | 7:24.30 | 3:05.18 | 33330 | 47222
4 | 10:29.48 | 2:46.36 | 47223 | 59708
5 | 13:16.09 | 4:24.66 | 59709 | 79574
6 | 17:41.00 | 3:07.60 | 79575 | 93659
7 | 20:48.60 | 9:41.24 | 93660 | 137258
8 | 30:30.09 | 2:14.12 | 137259 | 147320
9 | 32:44.21 | 3:53.18 | 147321 | 164813
10 | 36:37.39 | 2:10.42 | 164814 | 174605
11 | 38:48.06 | 3:27.33 | 174606 | 190163

Характеристики диапазона извлечения и сообщения об ошибках

Выбранный диапазон

Имя файла I:\Temp\Новая папка\Pink Floyd - The Piper At The Gates Of Dawn [40th Anniversary Edition] (Disc 1).wav

Пиковый уровень 100.0 %
Скорость извлечения 3.6 X
Качество диапазона 99.9 %
CRC теста 0DEBAFB3
CRC копии 0DEBAFB3
Копирование... OK

Ошибок не произошло

Конец отчёта

==== Контрольная сумма отчёта 2AF9D5DBFFC1189874EAB1B6BA4F3E30EAD520F1D690995EBA6C48FB73C69ACD ====
Треклист:

01. Astronomy Domine 4:12
02. Lucifer Sam 3:07
03. Matilda Mother 3:09
04. Flaming 2:46
05. Pow R. Toc H. 4:26
06. Take Up Thy Stethoscope And Walk 3:06
07. Interstellar Overdrive 9:40
08. The Gnome 2:14
09. Chapter 24 3:42
10. The Scarecrow 2:11
11. Bike 3:25
Exact Audio Copy V1.0 beta 3 from 29. August 2011

Отчёт EAC об извлечении, выполненном 18. февраля 2012, 10:43

Pink Floyd / The Piper At The Gates Of Dawn [40th Anniversary Edition] (Disc 2)

Дисковод: Optiarc DVD RW AD-7200A Adapter: 4 ID: 0

Режим чтения : Достоверность
Использование точного потока : Да
Отключение кэша аудио : Да
Использование указателей C2 : Нет

Коррекция смещения при чтении : 48
Способность читать области Lead-in и Lead-out : Нет
Заполнение пропущенных сэмплов тишиной : Да
Удаление блоков с тишиной в начале и конце : Нет
При вычислениях CRC использовались нулевые сэмплы : Да
Интерфейс : Встроенный Win32-интерфейс для Win NT/2000

Выходной формат : Пользовательский кодировщик
Выбранный битрейт : 128 kBit/s
Качество : Высокий
Добавление ID3-тега : Нет
Утилита сжатия : C:\Program Files (x86)\Exact Audio Copy\FLAC\FLAC.EXE
Дополнительные параметры : -V -8 -T "Date=%year%" -T "Genre=%genre%" %source%

TOC извлечённого CD

Трек | Старт | Длительность | Начальный сектор | Конечный сектор
---------------------------------------------------------------------
1 | 0:00.00 | 4:12.17 | 0 | 18916
2 | 4:12.17 | 3:07.18 | 18917 | 32959
3 | 7:19.35 | 3:08.40 | 32960 | 47099
4 | 10:28.00 | 2:46.05 | 47100 | 59554
5 | 13:14.05 | 4:26.15 | 59555 | 79519
6 | 17:40.20 | 3:05.71 | 79520 | 93465
7 | 20:46.16 | 9:40.34 | 93466 | 136999
8 | 30:26.50 | 2:13.59 | 137000 | 147033
9 | 32:40.34 | 3:42.15 | 147034 | 163698
10 | 36:22.49 | 2:11.23 | 163699 | 173546
11 | 38:33.72 | 3:24.25 | 173547 | 188871

Характеристики диапазона извлечения и сообщения об ошибках

Выбранный диапазон

Имя файла I:\Temp\Новая папка\2\Pink Floyd - The Piper At The Gates Of Dawn [40th Anniversary Edition] (Disc 2).wav

Пиковый уровень 100.0 %
Скорость извлечения 3.6 X
Качество диапазона 100.0 %
CRC теста A0923B37
CRC копии A0923B37
Копирование... OK

Ошибок не произошло

Конец отчёта

==== Контрольная сумма отчёта 1FE6050B8D5371762B2A368FACCA68BE8A5E1E350C79710FAF14A38533D82EA8 ====
Треклист:

01. Arnold Layne 2:55
02. Candy And A Currant Bun 2:46
03. See Emily Play 2:54
04. Apples And Oranges 3:06
05. Paintbox 3:45
06. Interstellar Overdrive (Take 2)(French Edit) 5:16
07. Apples And Oranges (Stereo Version)(Previously Unissued) 3:11
08. Matilda Mother (Alternative Version)(Previously Unissued) 3:09
09. Interstellar Overdrive (Take 6)(Previously Unissued) 5:04
Exact Audio Copy V1.0 beta 3 from 29. August 2011

Отчёт EAC об извлечении, выполненном 18. февраля 2012, 11:06

Pink Floyd / The Piper At The Gates Of Dawn [40th Anniversary Edition] (Disc 3)

Дисковод: Optiarc DVD RW AD-7200A Adapter: 4 ID: 0

Режим чтения : Достоверность
Использование точного потока : Да
Отключение кэша аудио : Да
Использование указателей C2 : Нет

Коррекция смещения при чтении : 48
Способность читать области Lead-in и Lead-out : Нет
Заполнение пропущенных сэмплов тишиной : Да
Удаление блоков с тишиной в начале и конце : Нет
При вычислениях CRC использовались нулевые сэмплы : Да
Интерфейс : Встроенный Win32-интерфейс для Win NT/2000

Выходной формат : Пользовательский кодировщик
Выбранный битрейт : 128 kBit/s
Качество : Высокий
Добавление ID3-тега : Нет
Утилита сжатия : C:\Program Files (x86)\Exact Audio Copy\FLAC\FLAC.EXE
Дополнительные параметры : -V -8 -T "Date=%year%" -T "Genre=%genre%" %source%

TOC извлечённого CD

Трек | Старт | Длительность | Начальный сектор | Конечный сектор
---------------------------------------------------------------------
1 | 0:00.00 | 2:55.62 | 0 | 13186
2 | 2:55.62 | 2:45.25 | 13187 | 25586
3 | 5:41.12 | 2:54.10 | 25587 | 38646
4 | 8:35.22 | 3:05.62 | 38647 | 52583
5 | 11:41.09 | 3:45.49 | 52584 | 69507
6 | 15:26.58 | 5:15.56 | 69508 | 93188
7 | 20:42.39 | 3:11.01 | 93189 | 107514
8 | 23:53.40 | 3:09.10 | 107515 | 121699
9 | 27:02.50 | 5:03.56 | 121700 | 144480

Характеристики диапазона извлечения и сообщения об ошибках

Выбранный диапазон

Имя файла I:\Temp\Pink Floyd - The Piper At The Gates Of Dawn\CD3 Bonus Disc\Pink Floyd - The Piper At The Gates Of Dawn [40th Anniversary Edition] (Disc 3).wav

Пиковый уровень 100.0 %
Скорость извлечения 3.4 X
Качество диапазона 100.0 %
CRC теста 96EE0082
CRC копии 96EE0082
Копирование... OK

Ошибок не произошло

Конец отчёта

==== Контрольная сумма отчёта 09399E61F90D523EA0D3A1B3974C6FF46983874665864EFD2DA666DA7A20F95F ====
Треклист:
01. Let There Be More Light
02. Remember A Day
03. Set The Controls For The Heart Of The Sun
04. Corporal Clegg
05. A Saucerful Of Secrets
06. See-Saw
07. Jugband Blues
Exact Audio Copy V1.0 beta 3 from 29. August 2011

Отчёт EAC об извлечении, выполненном 1. мая 2012, 18:36

Pink Floyd / A Saucerful Of Secrets [1992 Digital Remaster]

Дисковод: ASUS DRW-24B3ST Adapter: 5 ID: 1

Режим чтения : Достоверность
Использование точного потока : Да
Отключение кэша аудио : Да
Использование указателей C2 : Нет

Коррекция смещения при чтении : 6
Способность читать области Lead-in и Lead-out : Нет
Заполнение пропущенных сэмплов тишиной : Да
Удаление блоков с тишиной в начале и конце : Нет
При вычислениях CRC использовались нулевые сэмплы : Да
Интерфейс : Встроенный Win32-интерфейс для Win NT/2000

Выходной формат : Пользовательский кодировщик
Выбранный битрейт : 128 kBit/s
Качество : Высокий
Добавление ID3-тега : Нет
Утилита сжатия : C:\Program Files (x86)\Exact Audio Copy\FLAC\FLAC.EXE
Дополнительные параметры : -V -8 -T "Date=%year%" -T "Genre=%genre%" %source%

TOC извлечённого CD

Трек | Старт | Длительность | Начальный сектор | Конечный сектор
---------------------------------------------------------------------
1 | 0:00.00 | 5:38.46 | 0 | 25395
2 | 5:38.46 | 4:33.09 | 25396 | 45879
3 | 10:11.55 | 5:27.18 | 45880 | 70422
4 | 15:38.73 | 4:12.04 | 70423 | 89326
5 | 19:51.02 | 11:59.49 | 89327 | 143300
6 | 31:50.51 | 4:36.69 | 143301 | 164069
7 | 36:27.45 | 3:00.06 | 164070 | 177575

Характеристики диапазона извлечения и сообщения об ошибках

Выбранный диапазон

Имя файла I:\Temp\Pink Floyd - A Saucerful of Secrets\Pink Floyd - A Saucerful Of Secrets [1992 Digital Remaster].wav

Пиковый уровень 89.2 %
Скорость извлечения 7.1 X
Качество диапазона 100.0 %
CRC теста 3487809A
CRC копии 3487809A
Копирование... OK

Ошибок не произошло

AccurateRip: сводка

Трек 1 отсутствует в базе данных
Трек 2 отсутствует в базе данных
Трек 3 отсутствует в базе данных
Трек 4 отсутствует в базе данных
Трек 5 отсутствует в базе данных
Трек 6 отсутствует в базе данных
Трек 7 отсутствует в базе данных

Ни одного трека нет в базе AccurateRip

Конец отчёта

==== Контрольная сумма отчёта 9AD99DCDAD94360047459B78D1EAC459D9B34EAC87DAF44C41036B1F7D50C6BF ====
Пока нет в личной коллекции, будет добавлен позже
Треклист:
01. Cirrus Minor
02. The Nile Song
03. Crying Song
04. Up The Khyber
05. Green Is The Colour
06. Cymbaline
07. Party Sequence
08. Main Theme
09. Ibiza Bar
10. More Blues
11. Quicksilver
12. A Spanish Piece
13. Dramatic Theme
Пока нет в личной коллекции, будет добавлен позже
Треклист:
01. Sysyphus: Part I
02. Sysyphus: Part II
03. Sysyphus: Part III
04. Sysyphus: Part IV
05. Grantchester Meadows
06. Several Species Of Small Furry Animals
07. The Narrow Way: Part I
08. The Narrow Way: Part II
09. The Narrow Way: Part III
10. The Grand Vizer's Garden: Party Part I (Entrance)
11. The Grand Vizer's Garden: Party Part II (Entertainment)
12. The Grand Vizer's Garden: Party Part III (Exit)
Exact Audio Copy V1.0 beta 3 from 29. August 2011

Отчёт EAC об извлечении, выполненном 7. октября 2011, 17:22

Pink Floyd / Ummagumma - Studio Album

Дисковод: Optiarc DVD RW AD-7200A Adapter: 3 ID: 1

Режим чтения : Достоверность
Использование точного потока : Да
Отключение кэша аудио : Да
Использование указателей C2 : Нет

Коррекция смещения при чтении : 48
Способность читать области Lead-in и Lead-out : Нет
Заполнение пропущенных сэмплов тишиной : Да
Удаление блоков с тишиной в начале и конце : Нет
При вычислениях CRC использовались нулевые сэмплы : Да
Интерфейс : Установленный внешний ASPI-интерфейс

Выходной формат : Пользовательский кодировщик
Выбранный битрейт : 128 kBit/s
Качество : Высокий
Добавление ID3-тега : Нет
Утилита сжатия : C:\Program Files (x86)\Exact Audio Copy\FLAC\FLAC.EXE
Дополнительные параметры : -V -8 -T "Date=%year%" -T "Genre=%genre%" %source%

TOC извлечённого CD

Трек | Старт | Длительность | Начальный сектор | Конечный сектор
---------------------------------------------------------------------
1 | 0:00.00 | 1:08.55 | 0 | 5154
2 | 1:08.55 | 3:30.05 | 5155 | 20909
3 | 4:38.60 | 1:49.68 | 20910 | 29152
4 | 6:28.53 | 6:59.40 | 29153 | 60617
5 | 13:28.18 | 7:26.30 | 60618 | 94097
6 | 20:54.48 | 4:59.65 | 94098 | 116587
7 | 25:54.38 | 3:27.42 | 116588 | 132154
8 | 29:22.05 | 2:53.28 | 132155 | 145157
9 | 32:15.33 | 5:57.30 | 145158 | 171962
10 | 38:12.63 | 1:00.07 | 171963 | 176469
11 | 39:12.70 | 7:06.20 | 176470 | 208439
12 | 46:19.15 | 0:38.45 | 208440 | 211334

Характеристики диапазона извлечения и сообщения об ошибках

Выбранный диапазон

Имя файла C:\Users\Valeriy\Desktop\Новая папка\UMM\Pink Floyd - Ummagumma - Studio Album.wav

Пиковый уровень 100.0 %
Скорость извлечения 3.9 X
Качество диапазона 100.0 %
CRC теста AAB5808A
CRC копии AAB5808A
Копирование... OK

Ошибок не произошло

AccurateRip: сводка

Трек 1 : извлечено точно (доверие 7) [AE3995D2] (AR v2)
Трек 2 : извлечено точно (доверие 8) [F140DE84] (AR v2)
Трек 3 : извлечено точно (доверие 8) [7D46E3FC] (AR v2)
Трек 4 : извлечено точно (доверие 8) [85A4BE51] (AR v2)
Трек 5 : извлечено точно (доверие 7) [B98C6396] (AR v2)
Трек 6 : извлечено точно (доверие 8) [9DC206ED] (AR v2)
Трек 7 : извлечено точно (доверие 7) [EE2BA105] (AR v2)
Трек 8 : извлечено точно (доверие 7) [D5D0E6AB] (AR v2)
Трек 9 : извлечено точно (доверие 8) [D56D170B] (AR v2)
Трек 10 : извлечено точно (доверие 8) [D9AD9B38] (AR v2)
Трек 11 : извлечено точно (доверие 8) [2562F653] (AR v2)
Трек 12 : извлечено точно (доверие 8) [6CC88F29] (AR v2)

Все треки извлечены точно

Конец отчёта

==== Контрольная сумма отчёта 527F2DD7A94B8417AF89B6ED671EFFB8AB3D97F8CDC0F7597AF8AD980C2E80AD ====
Треклист:
01. Atom Heart Mother (23:44)
02. If (4:30)
03. Summer '68 (5:29)
04. Fat Old Sun (5:22)
05. Alan's Psychedelic Breakfast (13:00)
Exact Audio Copy V1.0 beta 3 from 29. August 2011

Отчёт EAC об извлечении, выполненном 20. мая 2012, 18:31

Pink Floyd / Atom Heart Mother (1994 Remastered)

Дисковод: ASUS DRW-24B3ST Adapter: 5 ID: 1

Режим чтения : Достоверность
Использование точного потока : Да
Отключение кэша аудио : Да
Использование указателей C2 : Нет

Коррекция смещения при чтении : 6
Способность читать области Lead-in и Lead-out : Нет
Заполнение пропущенных сэмплов тишиной : Да
Удаление блоков с тишиной в начале и конце : Нет
При вычислениях CRC использовались нулевые сэмплы : Да
Интерфейс : Встроенный Win32-интерфейс для Win NT/2000

Выходной формат : Пользовательский кодировщик
Выбранный битрейт : 128 kBit/s
Качество : Высокий
Добавление ID3-тега : Нет
Утилита сжатия : C:\Program Files (x86)\Exact Audio Copy\FLAC\FLAC.EXE
Дополнительные параметры : -V -8 -T "Date=%year%" -T "Genre=%genre%" %source%

TOC извлечённого CD

Трек | Старт | Длительность | Начальный сектор | Конечный сектор
---------------------------------------------------------------------
1 | 0:00.00 | 23:44.24 | 0 | 106823
2 | 23:44.24 | 4:30.04 | 106824 | 127077
3 | 28:14.28 | 5:29.29 | 127078 | 151781
4 | 33:43.57 | 5:22.09 | 151782 | 175940
5 | 39:05.66 | 13:00.06 | 175941 | 234446

Характеристики диапазона извлечения и сообщения об ошибках

Выбранный диапазон

Имя файла I:\Temp\Pink Floyd - Дискография\01. Studio albums [Digital Remaster]\1970 - Atom Heart Mother (1994 No.50999 264437 2 0)\Pink Floyd - Atom Heart Mother (1994 Remastered).wav

Пиковый уровень 100.0 %
Скорость извлечения 7.5 X
Качество диапазона 100.0 %
CRC теста 9B710D5A
CRC копии 9B710D5A
Копирование... OK

Ошибок не произошло

AccurateRip: сводка

Трек 1 отсутствует в базе данных
Трек 2 отсутствует в базе данных
Трек 3 отсутствует в базе данных
Трек 4 отсутствует в базе данных
Трек 5 отсутствует в базе данных

Ни одного трека нет в базе AccurateRip

Конец отчёта

==== Контрольная сумма отчёта 671908026F5D8EF41865E88C4B73E5E27AFD9100F80FC8C7FEE8F1EDDFACDD06 ====
Треклист:
01. One Of These Days
02. A Pillow Of Winds
03. Fearless
04. San Tropez
05. Seamus
06. Echoes
Exact Audio Copy V1.0 beta 3 from 29. August 2011

Отчёт EAC об извлечении, выполненном 20. мая 2012, 19:30

Pink Floyd / Meddle [1994 Remastered]

Дисковод: ASUS DRW-24B3ST Adapter: 5 ID: 1

Режим чтения : Достоверность
Использование точного потока : Да
Отключение кэша аудио : Да
Использование указателей C2 : Нет

Коррекция смещения при чтении : 6
Способность читать области Lead-in и Lead-out : Нет
Заполнение пропущенных сэмплов тишиной : Да
Удаление блоков с тишиной в начале и конце : Нет
При вычислениях CRC использовались нулевые сэмплы : Да
Интерфейс : Встроенный Win32-интерфейс для Win NT/2000

Выходной формат : Пользовательский кодировщик
Выбранный битрейт : 128 kBit/s
Качество : Высокий
Добавление ID3-тега : Нет
Утилита сжатия : C:\Program Files (x86)\Exact Audio Copy\FLAC\FLAC.EXE
Дополнительные параметры : -V -8 -T "Date=%year%" -T "Genre=%genre%" %source%

TOC извлечённого CD

Трек | Старт | Длительность | Начальный сектор | Конечный сектор
---------------------------------------------------------------------
1 | 0:00.00 | 5:58.54 | 0 | 26903
2 | 5:58.54 | 5:11.12 | 26904 | 50240
3 | 11:09.66 | 6:09.15 | 50241 | 77930
4 | 17:19.06 | 3:44.30 | 77931 | 94760
5 | 21:03.36 | 2:16.47 | 94761 | 105007
6 | 23:20.08 | 23:31.36 | 105008 | 210868

Характеристики диапазона извлечения и сообщения об ошибках

Выбранный диапазон

Имя файла I:\Temp\Pink Floyd - Дискография\01. Studio albums [Digital Remaster]\1971 - Meddle (1994 No.50999 234553 2 0)\Pink Floyd - Meddle [1994 Remastered].wav

Пиковый уровень 97.7 %
Скорость извлечения 7.3 X
Качество диапазона 100.0 %
CRC теста F5C0F340
CRC копии F5C0F340
Копирование... OK

Ошибок не произошло

AccurateRip: сводка

Трек 1 отсутствует в базе данных
Трек 2 отсутствует в базе данных
Трек 3 отсутствует в базе данных
Трек 4 отсутствует в базе данных
Трек 5 отсутствует в базе данных
Трек 6 отсутствует в базе данных

Ни одного трека нет в базе AccurateRip

Конец отчёта

==== Контрольная сумма отчёта 087E2BBFA92FCF71C9DEC5B73548867E6B323A0AFE0906B7D19F714B114B8718 ====
Треклист:
01. Obscured By Clouds
02. When You're In
03. Burning Bridges
04. The Gold It's In The...
05. Wot's...Uh The Deal
06. Mudmen
07. Childhood's End
08. Free Four
09. Stay
10. Absolutely Curtains
Exact Audio Copy V1.0 beta 3 from 29. August 2011

Отчёт EAC об извлечении, выполненном 7. октября 2011, 20:41

Pink Floyd / Obscured By Clouds

Дисковод: Optiarc DVD RW AD-7200A Adapter: 3 ID: 1

Режим чтения : Достоверность
Использование точного потока : Да
Отключение кэша аудио : Да
Использование указателей C2 : Нет

Коррекция смещения при чтении : 48
Способность читать области Lead-in и Lead-out : Нет
Заполнение пропущенных сэмплов тишиной : Да
Удаление блоков с тишиной в начале и конце : Нет
При вычислениях CRC использовались нулевые сэмплы : Да
Интерфейс : Установленный внешний ASPI-интерфейс

Выходной формат : Пользовательский кодировщик
Выбранный битрейт : 128 kBit/s
Качество : Высокий
Добавление ID3-тега : Нет
Утилита сжатия : C:\Program Files (x86)\Exact Audio Copy\FLAC\FLAC.EXE
Дополнительные параметры : -V -8 -T "Date=%year%" -T "Genre=%genre%" %source%

TOC извлечённого CD

Трек | Старт | Длительность | Начальный сектор | Конечный сектор
---------------------------------------------------------------------
1 | 0:00.00 | 3:05.27 | 0 | 13901
2 | 3:05.27 | 2:31.05 | 13902 | 25231
3 | 5:36.32 | 3:30.20 | 25232 | 41001
4 | 9:06.52 | 3:08.05 | 41002 | 55106
5 | 12:14.57 | 5:09.25 | 55107 | 78306
6 | 17:24.07 | 4:18.15 | 78307 | 97671
7 | 21:42.22 | 4:33.38 | 97672 | 118184
8 | 26:15.60 | 4:16.60 | 118185 | 137444
9 | 30:32.45 | 4:07.45 | 137445 | 156014
10 | 34:40.15 | 5:51.27 | 156015 | 182366

Характеристики диапазона извлечения и сообщения об ошибках

Выбранный диапазон

Имя файла C:\Users\Valeriy\Desktop\Новая папка\Obscured By Clouds\Pink Floyd - Obscured By Clouds.wav

Пиковый уровень 100.0 %
Скорость извлечения 3.6 X
Качество диапазона 99.9 %
CRC теста 670F901A
CRC копии 670F901A
Копирование... OK

Ошибок не произошло

AccurateRip: сводка

Трек 1 : извлечено точно (доверие 4) [8974AA5C] (AR v2)
Трек 2 : извлечено точно (доверие 4) [BAF9394C] (AR v2)
Трек 3 : извлечено точно (доверие 4) [415FDC27] (AR v2)
Трек 4 : извлечено точно (доверие 4) [61B80986] (AR v2)
Трек 5 : извлечено точно (доверие 4) [FA152D62] (AR v2)
Трек 6 : извлечено точно (доверие 4) [310F7913] (AR v2)
Трек 7 : извлечено точно (доверие 4) [B89CB0C8] (AR v2)
Трек 8 : извлечено точно (доверие 4) [B6C9320F] (AR v2)
Трек 9 : извлечено точно (доверие 4) [22D29A91] (AR v2)
Трек 10 : извлечено точно (доверие 4) [1E08F92B] (AR v2)

Все треки извлечены точно

Конец отчёта

==== Контрольная сумма отчёта 89A86F9C2F31CF1B0835C132ED77CD76C46356E691325A2DAD03BC911B10F069 ====
Треклист:
01. Speak to Me
02. Breathe
03. On the Run
04. Time
05. The Great Gig in the Sky
06. Money
07. Us and Them
08. Any Colour You Like
09. Brain Damage
10. Eclipse
Exact Audio Copy V1.0 beta 3 from 29. August 2011

Отчёт EAC об извлечении, выполненном 1. мая 2012, 17:53

Pink Floyd / The Dark Side of the Moon (30th Anniversary)

Дисковод: ASUS DRW-24B3ST Adapter: 5 ID: 1

Режим чтения : Достоверность
Использование точного потока : Да
Отключение кэша аудио : Да
Использование указателей C2 : Нет

Коррекция смещения при чтении : 6
Способность читать области Lead-in и Lead-out : Нет
Заполнение пропущенных сэмплов тишиной : Да
Удаление блоков с тишиной в начале и конце : Нет
При вычислениях CRC использовались нулевые сэмплы : Да
Интерфейс : Встроенный Win32-интерфейс для Win NT/2000

Выходной формат : Пользовательский кодировщик
Выбранный битрейт : 128 kBit/s
Качество : Высокий
Добавление ID3-тега : Нет
Утилита сжатия : C:\Program Files (x86)\Exact Audio Copy\FLAC\FLAC.EXE
Дополнительные параметры : -V -8 -T "Date=%year%" -T "Genre=%genre%" %source%

TOC извлечённого CD

Трек | Старт | Длительность | Начальный сектор | Конечный сектор
---------------------------------------------------------------------
1 | 0:00.00 | 1:08.25 | 0 | 5124
2 | 1:08.25 | 2:48.54 | 5125 | 17778
3 | 3:57.04 | 3:50.45 | 17779 | 35073
4 | 7:47.49 | 6:49.45 | 35074 | 65793
5 | 14:37.19 | 4:44.09 | 65794 | 87102
6 | 19:21.28 | 6:22.55 | 87103 | 115807
7 | 25:44.08 | 7:49.63 | 115808 | 151045
8 | 33:33.71 | 3:26.15 | 151046 | 166510
9 | 37:00.11 | 3:46.69 | 166511 | 183529
10 | 40:47.05 | 2:11.40 | 183530 | 193394

Характеристики диапазона извлечения и сообщения об ошибках

Выбранный диапазон

Имя файла I:\Temp\Pink Floyd - The Dark Side Of The Moon\Pink Floyd - The Dark Side of the Moon (30th Anniversary).wav

Пиковый уровень 100.0 %
Скорость извлечения 7.1 X
Качество диапазона 100.0 %
CRC теста 8660B3AA
CRC копии 8660B3AA
Копирование... OK

Ошибок не произошло

AccurateRip: сводка

Трек 1 отсутствует в базе данных
Трек 2 отсутствует в базе данных
Трек 3 отсутствует в базе данных
Трек 4 отсутствует в базе данных
Трек 5 отсутствует в базе данных
Трек 6 отсутствует в базе данных
Трек 7 отсутствует в базе данных
Трек 8 отсутствует в базе данных
Трек 9 отсутствует в базе данных
Трек 10 отсутствует в базе данных

Ни одного трека нет в базе AccurateRip

Конец отчёта

==== Контрольная сумма отчёта AAC1B2591E53300DBEE51EEDF0028AD591F426E468DB1732A43F404504F984E7 ====
Треклист:
01. Shine On You Crazy Diamond (Parts I-V)
02. Welcome To The Machine
03. Have A Cigar
04. Wish You Were Here
05. Shine On You Crazy Diamond (Parts VI-IX)
Exact Audio Copy V1.0 beta 3 from 29. August 2011

Отчёт EAC об извлечении, выполненном 5. августа 2012, 10:03

Pink Floyd / Wish You Were Here

Дисковод: Optiarc DVD RW AD-7200A Adapter: 2 ID: 0

Режим чтения : Достоверность
Использование точного потока : Да
Отключение кэша аудио : Да
Использование указателей C2 : Нет

Коррекция смещения при чтении : 48
Способность читать области Lead-in и Lead-out : Нет
Заполнение пропущенных сэмплов тишиной : Да
Удаление блоков с тишиной в начале и конце : Нет
При вычислениях CRC использовались нулевые сэмплы : Да
Интерфейс : Встроенный Win32-интерфейс для Win NT/2000

Выходной формат : Пользовательский кодировщик
Выбранный битрейт : 768 kBit/s
Качество : Высокий
Добавление ID3-тега : Нет
Утилита сжатия : C:\Program Files (x86)\Exact Audio Copy\FLAC\FLAC.EXE
Дополнительные параметры : -V -8 -T "Date=%year%" -T "Genre=%genre%" %source%

TOC извлечённого CD

Трек | Старт | Длительность | Начальный сектор | Конечный сектор
---------------------------------------------------------------------
1 | 0:00.00 | 13:32.61 | 0 | 60960
2 | 13:32.61 | 7:23.04 | 60961 | 94189
3 | 20:55.65 | 5:08.16 | 94190 | 117305
4 | 26:04.06 | 5:35.63 | 117306 | 142493
5 | 31:39.69 | 12:29.73 | 142494 | 198741

Характеристики диапазона извлечения и сообщения об ошибках

Выбранный диапазон

Имя файла E:\Temp\Pink Floyd - Дискография\01. Studio albums [Digital Remaster]\1975 - Wish You Were Here (2011 No.5099952243325)\Pink Floyd - Wish You Were Here.wav

Пиковый уровень 100.0 %
Скорость извлечения 3.9 X
Качество диапазона 100.0 %
CRC теста C1AE30E2
CRC копии C1AE30E2
Копирование... OK

Ошибок не произошло

AccurateRip: сводка

Трек 1 отсутствует в базе данных
Трек 2 отсутствует в базе данных
Трек 3 отсутствует в базе данных
Трек 4 отсутствует в базе данных
Трек 5 отсутствует в базе данных

Ни одного трека нет в базе AccurateRip

Конец отчёта

==== Контрольная сумма отчёта F6BC1EABE7E19A21BC092D0FCDC8FFB50E04E5A415F2B659EB4325625F312318 ====
Пока нет в личной коллекции, будет добавлен позже
Треклист:
01. Pigs On The Wing (Part One)
02. Dogs
03. Pigs (Three Different Ones)
04. Sheep
05. Pigs On The Wing (Part Two)
Пока нет в личной коллекции, будет добавлен позже
Треклист:
01. In The Flesh?
02. The Thin Ice
03. Another Brick In The Wall (Part 1)
04. The Happiest Days Of Our Lives
05. Another Brick In The Wall (Part 2)
06. Mother
07. Goodbye Blue Sky
08. Empty Spaces
09. Young Lust
10. One Of My Turns
11. Don't Leave Me Now
12. Another Brick In The Wall Part 3
13. Goodbye Cruel World
Exact Audio Copy V1.0 beta 3 from 29. August 2011

Отчёт EAC об извлечении, выполненном 1. мая 2012, 11:57

Pink Floyd / The Wall [1994 Digital Remaster] (CD1)

Дисковод: ASUS DRW-24B3ST Adapter: 5 ID: 1

Режим чтения : Достоверность
Использование точного потока : Да
Отключение кэша аудио : Да
Использование указателей C2 : Нет

Коррекция смещения при чтении : 6
Способность читать области Lead-in и Lead-out : Нет
Заполнение пропущенных сэмплов тишиной : Да
Удаление блоков с тишиной в начале и конце : Нет
При вычислениях CRC использовались нулевые сэмплы : Да
Интерфейс : Встроенный Win32-интерфейс для Win NT/2000

Выходной формат : Пользовательский кодировщик
Выбранный битрейт : 128 kBit/s
Качество : Высокий
Добавление ID3-тега : Нет
Утилита сжатия : C:\Program Files (x86)\Exact Audio Copy\FLAC\FLAC.EXE
Дополнительные параметры : -V -8 -T "Date=%year%" -T "Genre=%genre%" %source%

TOC извлечённого CD

Трек | Старт | Длительность | Начальный сектор | Конечный сектор
---------------------------------------------------------------------
1 | 0:00.00 | 3:19.42 | 0 | 14966
2 | 3:19.42 | 2:29.64 | 14967 | 26205
3 | 5:49.31 | 3:09.72 | 26206 | 40452
4 | 8:59.28 | 1:50.36 | 40453 | 48738
5 | 10:49.64 | 3:59.34 | 48739 | 66697
6 | 14:49.23 | 5:33.64 | 66698 | 91736
7 | 20:23.12 | 2:47.42 | 91737 | 104303
8 | 23:10.54 | 2:08.24 | 104304 | 113927
9 | 25:19.03 | 3:31.06 | 113928 | 129758
10 | 28:50.09 | 3:36.39 | 129759 | 145997
11 | 32:26.48 | 4:16.29 | 145998 | 165226
12 | 36:43.02 | 1:14.52 | 165227 | 170828
13 | 37:57.54 | 1:14.19 | 170829 | 176397

Характеристики диапазона извлечения и сообщения об ошибках

Выбранный диапазон

Имя файла I:\Temp\Pink Floyd - The Wall\Pink Floyd - The Wall [1994 Digital Remaster] (CD1).wav

Пиковый уровень 97.2 %
Скорость извлечения 7.0 X
Качество диапазона 100.0 %
CRC теста FFC36A8D
CRC копии FFC36A8D
Копирование... OK

Ошибок не произошло

AccurateRip: сводка

Трек 1 отсутствует в базе данных
Трек 2 отсутствует в базе данных
Трек 3 отсутствует в базе данных
Трек 4 отсутствует в базе данных
Трек 5 отсутствует в базе данных
Трек 6 отсутствует в базе данных
Трек 7 отсутствует в базе данных
Трек 8 отсутствует в базе данных
Трек 9 отсутствует в базе данных
Трек 10 отсутствует в базе данных
Трек 11 отсутствует в базе данных
Трек 12 точность не определена (достоверность 2) [46D821C3], AccurateRip вернул [8EB9EB41] (AR v2)
Трек 13 точность не определена (достоверность 2) [F58280B0], AccurateRip вернул [B5533A37] (AR v2)

2 трек(и) не удалось проверить на точность
11 трек(и) не содержатся в базе AccurateRip

Ни один трек не прошёл проверки на точность
В вашей базе может быть иной вариант штамповки диска

Конец отчёта

==== Контрольная сумма отчёта 9BA79EA5F0F8B7B444135ED4679E132807FCE7AEA8994F88320F42AAFBE94215 ====
Треклист:
01. Hey You
02. Is There Anybody Out There?
03. Nobody Home
04. Vera
05. Bring The Boys Back Home
06. Comfortably Numb
07. The Show Must Go On
08. In The Flesh
09. Run Like Hell
10. Waiting For The Worms
11. Stop
12. The Trial
13. Outside The Wall
Exact Audio Copy V1.0 beta 3 from 29. August 2011

Отчёт EAC об извлечении, выполненном 1. мая 2012, 11:16

Pink Floyd / The Wall [1994 Digital Remaster] (CD2)

Дисковод: ASUS DRW-24B3ST Adapter: 5 ID: 1

Режим чтения : Достоверность
Использование точного потока : Да
Отключение кэша аудио : Да
Использование указателей C2 : Нет

Коррекция смещения при чтении : 6
Способность читать области Lead-in и Lead-out : Нет
Заполнение пропущенных сэмплов тишиной : Да
Удаление блоков с тишиной в начале и конце : Нет
При вычислениях CRC использовались нулевые сэмплы : Да
Интерфейс : Встроенный Win32-интерфейс для Win NT/2000

Выходной формат : Пользовательский кодировщик
Выбранный битрейт : 128 kBit/s
Качество : Высокий
Добавление ID3-тега : Нет
Утилита сжатия : C:\Program Files (x86)\Exact Audio Copy\FLAC\FLAC.EXE
Дополнительные параметры : -V -8 -T "Date=%year%" -T "Genre=%genre%" %source%

TOC извлечённого CD

Трек | Старт | Длительность | Начальный сектор | Конечный сектор
---------------------------------------------------------------------
1 | 0:00.00 | 4:41.39 | 0 | 21113
2 | 4:41.39 | 2:40.19 | 21114 | 33132
3 | 7:21.58 | 3:24.39 | 33133 | 48471
4 | 10:46.22 | 1:33.04 | 48472 | 55450
5 | 12:19.26 | 1:27.12 | 55451 | 61987
6 | 13:46.38 | 6:21.52 | 61988 | 90614
7 | 20:08.15 | 1:36.09 | 90615 | 97823
8 | 21:44.24 | 4:16.54 | 97824 | 117077
9 | 26:01.03 | 4:23.54 | 117078 | 136856
10 | 30:24.57 | 3:58.27 | 136857 | 154733
11 | 34:23.09 | 0:30.18 | 154734 | 157001
12 | 34:53.27 | 5:19.54 | 157002 | 180980
13 | 40:13.06 | 1:43.09 | 180981 | 188714

Характеристики диапазона извлечения и сообщения об ошибках

Выбранный диапазон

Имя файла I:\Temp\Pink Floyd - The Wall\cd2\Pink Floyd - The Wall [1994 Digital Remaster] (CD2).wav

Пиковый уровень 97.2 %
Скорость извлечения 7.1 X
Качество диапазона 100.0 %
CRC теста 53351C5A
CRC копии 53351C5A
Копирование... OK

Ошибок не произошло

AccurateRip: сводка

Трек 1 отсутствует в базе данных
Трек 2 отсутствует в базе данных
Трек 3 отсутствует в базе данных
Трек 4 отсутствует в базе данных
Трек 5 отсутствует в базе данных
Трек 6 отсутствует в базе данных
Трек 7 отсутствует в базе данных
Трек 8 отсутствует в базе данных
Трек 9 отсутствует в базе данных
Трек 10 отсутствует в базе данных
Трек 11 отсутствует в базе данных
Трек 12 отсутствует в базе данных
Трек 13 отсутствует в базе данных

Ни одного трека нет в базе AccurateRip

Конец отчёта

==== Контрольная сумма отчёта E0B31F01F5DBA101A31056913D74D67E54E7312AC3999305BDC9859AD40F8EDB ====
Треклист:
01. The Post War Dream
02. Your Possible Pasts
03. One Of The Few
04. When The Tigers Broke Free
05. The Hero's Return
06. The Gunners Dream
07. Paranoid Eyes
08. Get Your Filthy Hands Off My Desert
09. The Fletcher Memorial Home
10. Southhampton Dock
11. The Final Cut
12. Not Now John
13. Two Suns In The Sunset
Exact Audio Copy V1.0 beta 3 from 29. August 2011

Отчёт EAC об извлечении, выполненном 6. мая 2012, 23:28

Pink Floyd / The Final Cut (Digital Remaster 2004)

Дисковод: ASUS DRW-24B3ST Adapter: 5 ID: 1

Режим чтения : Достоверность
Использование точного потока : Да
Отключение кэша аудио : Да
Использование указателей C2 : Нет

Коррекция смещения при чтении : 6
Способность читать области Lead-in и Lead-out : Нет
Заполнение пропущенных сэмплов тишиной : Да
Удаление блоков с тишиной в начале и конце : Нет
При вычислениях CRC использовались нулевые сэмплы : Да
Интерфейс : Встроенный Win32-интерфейс для Win NT/2000

Выходной формат : Пользовательский кодировщик
Выбранный битрейт : 128 kBit/s
Качество : Высокий
Добавление ID3-тега : Нет
Утилита сжатия : C:\Program Files (x86)\Exact Audio Copy\FLAC\FLAC.EXE
Дополнительные параметры : -V -8 -T "Date=%year%" -T "Genre=%genre%" %source%

TOC извлечённого CD

Трек | Старт | Длительность | Начальный сектор | Конечный сектор
---------------------------------------------------------------------
1 | 0:00.00 | 3:00.18 | 0 | 13517
2 | 3:00.18 | 4:26.22 | 13518 | 33489
3 | 7:26.40 | 1:11.61 | 33490 | 38875
4 | 8:38.26 | 3:16.55 | 38876 | 53630
5 | 11:55.06 | 2:42.69 | 53631 | 65849
6 | 14:38.00 | 5:18.03 | 65850 | 89702
7 | 19:56.03 | 3:41.31 | 89703 | 106308
8 | 23:37.34 | 1:17.21 | 106309 | 112104
9 | 24:54.55 | 4:12.36 | 112105 | 131040
10 | 29:07.16 | 2:10.49 | 131041 | 140839
11 | 31:17.65 | 4:45.42 | 140840 | 162256
12 | 36:03.32 | 4:56.00 | 162257 | 184456
13 | 40:59.32 | 5:20.69 | 184457 | 208525

Характеристики диапазона извлечения и сообщения об ошибках

Выбранный диапазон

Имя файла I:\Temp\Pink Floyd - The Final Cut\Pink Floyd - The Final Cut (Digital Remaster 2004).wav

Пиковый уровень 100.0 %
Скорость извлечения 7.3 X
Качество диапазона 100.0 %
CRC теста 7A1A3F9B
CRC копии 7A1A3F9B
Копирование... OK

Ошибок не произошло

AccurateRip: сводка

Трек 1 отсутствует в базе данных
Трек 2 отсутствует в базе данных
Трек 3 отсутствует в базе данных
Трек 4 отсутствует в базе данных
Трек 5 отсутствует в базе данных
Трек 6 отсутствует в базе данных
Трек 7 отсутствует в базе данных
Трек 8 отсутствует в базе данных
Трек 9 отсутствует в базе данных
Трек 10 отсутствует в базе данных
Трек 11 отсутствует в базе данных
Трек 12 отсутствует в базе данных
Трек 13 отсутствует в базе данных

Ни одного трека нет в базе AccurateRip

Конец отчёта

==== Контрольная сумма отчёта 1DF81606295086109B8E9700BEE3F09F149258343B17FDBCD8DE31148B9F904D ====
Треклист:
01. Signs Of Life
02. Learning To Fly
03. The Dogs Of War
04. One Slip
05. On The Turning Away
06. Yet Another Movie
07. A New Machine Part 1
08. Terminal Frost
09. A New Machine Part 2
10. Sorrow
Exact Audio Copy V1.0 beta 3 from 29. August 2011

Отчёт EAC об извлечении, выполненном 20. мая 2012, 20:24

Pink Floyd / A Momentary Lapse Of Reason (remastered)

Дисковод: ASUS DRW-24B3ST Adapter: 5 ID: 1

Режим чтения : Достоверность
Использование точного потока : Да
Отключение кэша аудио : Да
Использование указателей C2 : Нет

Коррекция смещения при чтении : 6
Способность читать области Lead-in и Lead-out : Нет
Заполнение пропущенных сэмплов тишиной : Да
Удаление блоков с тишиной в начале и конце : Нет
При вычислениях CRC использовались нулевые сэмплы : Да
Интерфейс : Встроенный Win32-интерфейс для Win NT/2000

Выходной формат : Пользовательский кодировщик
Выбранный битрейт : 128 kBit/s
Качество : Высокий
Добавление ID3-тега : Нет
Утилита сжатия : C:\Program Files (x86)\Exact Audio Copy\FLAC\FLAC.EXE
Дополнительные параметры : -V -8 -T "Date=%year%" -T "Genre=%genre%" %source%

TOC извлечённого CD

Трек | Старт | Длительность | Начальный сектор | Конечный сектор
---------------------------------------------------------------------
1 | 0:00.00 | 4:23.31 | 0 | 19755
2 | 4:23.31 | 4:52.04 | 19756 | 41659
3 | 9:15.35 | 6:03.39 | 41660 | 68923
4 | 15:18.74 | 5:08.61 | 68924 | 92084
5 | 20:27.60 | 5:41.09 | 92085 | 117668
6 | 26:08.69 | 7:26.22 | 117669 | 151140
7 | 33:35.16 | 1:45.70 | 151141 | 159085
8 | 35:21.11 | 6:15.34 | 159086 | 187244
9 | 41:36.45 | 0:38.45 | 187245 | 190139
10 | 42:15.15 | 8:48.15 | 190140 | 229754

Характеристики диапазона извлечения и сообщения об ошибках

Выбранный диапазон

Имя файла I:\Temp\Pink Floyd - Дискография\01. Studio albums [Digital Remaster]\1987 - A Momentary Lapse of Reason (1987 No.CDP 7 48068 2)\Pink Floyd - A Momentary Lapse Of Reason (remastered).wav

Пиковый уровень 100.0 %
Скорость извлечения 7.4 X
Качество диапазона 100.0 %
CRC теста B318C854
CRC копии B318C854
Копирование... OK

Ошибок не произошло

AccurateRip: сводка

Трек 1 отсутствует в базе данных
Трек 2 отсутствует в базе данных
Трек 3 отсутствует в базе данных
Трек 4 отсутствует в базе данных
Трек 5 отсутствует в базе данных
Трек 6 отсутствует в базе данных
Трек 7 отсутствует в базе данных
Трек 8 отсутствует в базе данных
Трек 9 отсутствует в базе данных
Трек 10 отсутствует в базе данных

Ни одного трека нет в базе AccurateRip

Конец отчёта

==== Контрольная сумма отчёта 5C2B3CC98D3E8FF5F9CE960550CF4EA5E07243F98074913EFD6A3D0CA1B62AB4 ====
Пока нет в личной коллекции, будет добавлен позже
Треклист:
01. Cluster One
02. What Do You Want From Me
03. Poles Apart
04. Marooned
05. A Great Day For Freedom
06. Wearing The Inside Out
07. Take It Back
08. Coming Back To Life
09. Keep Talking
10. Lost For Words
11. High Hopes
Пока нет в личной коллекции, будет добавлен позже
Доп. информация:
Напоминаем Вам, что вся музыка может использоваться ТОЛЬКО для ознакомления. После прослушивания Вам НЕОБХОДИМО стереть скачанное и тем более не заниматься его распространением среди знакомых

Трекер:  [ 14-Окт-2012 11:10 ]

  

Скачать .torrent

Размер .torrent файла 134 KB


Размер: 13.76 GB
Хэш (hash) релиза: 7dd03e8767a511e28ae2783282f6794020919bd8

Торренты, похожие на Pink Floyd - Дискография скачать торрент

Форум Название Автор Размер S L Добавлен
Rосk | Mеtаl | Аltеrnаtivе, Рunk, Indереndеnt (mр3) ·· (Progressive rock, Psychedelic rock) Pink Floyd: дискография (112 релизов, 1967–2016), MP3 (CBR 320 kbps) Galfimbul 2221891526020.69 GB 0 0 1479423368

01:56

18-Ноя-16

Rосk | Mеtаl | Аltеrnаtivе, Рunk, Indереndеnt (losslеss) ·· (Progressive Rock) Pink Floyd - Дискография [Digital Remaster] - 1967-2012, FLAC (image+.cue), lossless Galfimbul 1866567855917.38 GB 0 0 1364115272

11:54

24-Мар-13

Зарубежный Rock ·· (Progressive rock | Psychedelic rock) Pink Floyd - Дискография 1967-2011 (101 релиз, включая бокс-сеты), MP3 (CBR 320 kbps) Umakiro 1792172612716.69 GB 0 0 1345818540

17:29

24-Авг-12

Собственные оцифровки ·· (Progressive rock) [LP][24/96] Pink Floyd - дискография (15 LP's) 1967-1994, FLAC (image+.cue), lossless AqvaGen 4134767540238.51 GB 0 0 1303712457

09:20

25-Апр-11

Rосk | Mеtаl | Аltеrnаtivе, Рunk, Indереndеnt (losslеss) ·· (Progressive Rock) Pink Floyd - Студийная дискография (первопрессы/не-ремастеры) (1967-1994) - 14 альбомов (46/7 изданий), FLAC (image+.cue), lossless AqvaGen 2239074686220.85 GB 0 0 1321484510

02:01

17-Ноя-11

Rосk | Mеtаl | Аltеrnаtivе, Рunk, Indереndеnt (losslеss) ·· (Progressive Rock) Pink Floyd - Студийная дискография (первопрессы) (1967-1994) - 14 альбомов (35 изданий), FLAC (image+.cue), lossless sebladec 1545098748314.39 GB 0 0 1299011079

23:24

1-Мар-11

Rосk | Mеtаl | Аltеrnаtivе, Рunk, Indереndеnt (losslеss) ·· (Rock, Pshychedelic, Progressive) Pink Floyd - Oh By The Way [Boxset] - Студийная дискография - 2007, FLAC (image+.cue), lossless Galfimbul 46391851354.32 GB 0 0 1297858600

15:16

16-Фев-11

Еще никто не оставлял запись к записи скачать торрент Pink Floyd - Дискография . Будь первым!

!Обратная связь