Скачать через торрент музыку Morse Code Transmissio бесплатно без регистрации torrent

Если у вас наблюдаются проблемы со скриншотами, переходом по ссылками, скачиванием торрентов - проблемы в блокировщике рекламы AdBlock. #хорошегоДня!


Статистика раздачи
Размер:  195 MB   |    Зарегистрирован:  4 года 10 месяцев   |    .torrent скачан:  22 раза   |   
Раздают:  1  
   
Загрузка...
 
Автор Сообщение

Galfimbul

avatar Galfimbul


Morse Code Transmission(Morse Code) / Morse Code Transmission - 1971

Жанр: Psychedelic/Proto-Prog
Страна-производитель диска: Germany
Год издания: 2012
Издатель (лейбл): O-Music Records
Номер по каталогу: OM 71029
Страна: Canada
Аудиокодек: FLAC (*.flac)
Тип рипа: image+.cue
Битрейт аудио: lossless
Продолжительность: 29:23
Источник (релизер): my CD
Наличие сканов в содержимом раздачи: да

Треклист:
1. Souvenirs of our days (2:24)
2. It's never ever easy to do (3:50)
3. Time (1:31)
4. Oh lord (2:55)
5. Hunting & laughing (2:03)
6. The friend (1:07)
7. Story-book life (2:58)
8. Fire sign (2:03)
9. Freedom train (3:34)
10. Today I'm alive (2:23)
11. One to one (2:50)
12. Two friends (1:45)
Exact Audio Copy V0.99 prebeta 4 from 23. January 2008

Отчёт EAC об извлечении, выполненном 8. октября 2012, 12:43

Morse Code Transmission / Morse Code Transmission

Дисковод: ASUS DRW-24B1ST Adapter: 3 ID: 0

Режим чтения : ДостоверностьИспользование точного потока : ДаОтключение кэша аудио : ДаИспользование указателей C2 : Нет

Коррекция смещения при чтении : 6Способность читать области Lead-in и Lead-out : НетЗаполнение пропущенных сэмплов тишиной : ДаУдаление блоков с тишиной в начале и конце : НетПри вычислениях CRC использовались нулевые сэмплы : ДаИнтерфейс : Встроенный Win32-интерфейс для Win NT/2000

Выходной формат : Пользовательский кодировщикВыбранный битрейт : 768 kBit/sКачество : ВысокийДобавление ID3-тэга : НетУтилита сжатия : C:\Program Files\Exact Audio Copy\FLAC\FLAC.EXEДополнительные параметры : -6 -V -T "ARTIST=%a" -T "TITLE=%t" -T "ALBUM=%g" -T "DATE=%y" -T "TRACKNUMBER=%n" -T "GENRE=%m" -T "COMMENT=%e" %s -o %d

TOC извлечённого CD

Трек | Старт | Длительность | Начальный сектор | Конечный сектор --------------------------------------------------------------------- 1 | 0:00.00 | 2:22.68 | 0 | 10717 2 | 2:22.68 | 3:48.59 | 10718 | 27876 3 | 6:11.52 | 1:32.66 | 27877 | 34842 4 | 7:44.43 | 2:54.65 | 34843 | 47957 5 | 10:39.33 | 2:02.35 | 47958 | 57142 6 | 12:41.68 | 1:06.68 | 57143 | 62160 7 | 13:48.61 | 2:58.24 | 62161 | 75534 8 | 16:47.10 | 2:04.32 | 75535 | 84866 9 | 18:51.42 | 3:35.38 | 84867 | 101029 10 | 22:27.05 | 2:23.47 | 101030 | 111801 11 | 24:50.52 | 2:52.50 | 111802 | 124751 12 | 27:43.27 | 1:46.36 | 124752 | 132737

Характеристики диапазона извлечения и сообщения об ошибках

Выбранный диапазон

Имя файла D:\purple\EAC\Morse Code Transmission - Morse Code Transmission.wav

Пиковый уровень 100.0 % Качество диапазона 100.0 % CRC теста 40093FF4 CRC копии 40093FF4 Копирование... OK

Ошибок не произошло

AccurateRip: сводка

Трек 1 нет в базе данныхТрек 2 нет в базе данныхТрек 3 нет в базе данныхТрек 4 нет в базе данныхТрек 5 нет в базе данныхТрек 6 нет в базе данныхТрек 7 нет в базе данныхТрек 8 нет в базе данныхТрек 9 нет в базе данныхТрек 10 нет в базе данныхТрек 11 нет в базе данныхТрек 12 нет в базе данных

Ни одного трека нет в базе AccurateRip

Конец отчёта
- Christian Simard / lead vocals and keyboards
- Michel Vallee / bass guitar
- Jocelyn Julien / electric guitars
- Raymond Roy / drums
- Peter Schenkman / solo cello
- Al Cherney / Cajun fiddle


Трекер:  [ 14-Окт-2012 11:10 ]

  

Скачать .torrent

Размер .torrent файла 16 KB


Размер: 195 MB
Хэш (hash) релиза: 1e37400b59739de111bf80e240755ecbf9f41100

Еще никто не оставлял запись к записи скачать торрент Morse Code Transmissio . Будь первым!

!Обратная связь