Скачать через торрент музыку Doc Eisenhauer - Rock n Roll... bis der Arzt Kommt - 1996, APE бесплатно без регистрации torrent

Если у вас наблюдаются проблемы со скриншотами, переходом по ссылками, скачиванием торрентов - проблемы в блокировщике рекламы AdBlock. #хорошегоДня!


Статистика раздачи
Размер:  337 MB   |    Зарегистрирован:  4 года 10 месяцев   |    .torrent скачан:  28 раз   |   
Раздают:  1  
   
Загрузка...
 
Автор Сообщение

Galfimbul

avatar Galfimbul


Doc Eisenhauer / Rock n' Roll... bis der Arzt Kommt

Жанр: hard rock
Страна-производитель диска: Germany
Год издания: 1996
Издатель (лейбл): Bud Music
Номер по каталогу: CHP 61 510
Страна: Germany
Аудиокодек: APE (*.ape)
Тип рипа: image+.cue
Битрейт аудио: lossless
Источник (релизер): свой рипъ
Наличие сканов в содержимом раздачи: нет
Треклист:
01. Crash
02. Allein Im Ring
03. Komm Und Lass Mich Ran
04. Alles Nur Ein Spiel
05. Texas
06. Hollywood
07. Der Konig Von St. Pauli
08. Das Letzte Hemd
09. Frankenstein
10. Weisse Mause
11. Wild Turkey
Exact Audio Copy V0.99 prebeta 4 from 23. January 2008

EAC extraction logfile from 8. October 2012, 20:13

Doc Eisenhauer / Rock'n Roll... bis der Arzt kommt

Used drive : PIONEER DVD-RW DVR-212 Adapter: 5 ID: 0

Read mode : SecureUtilize accurate stream : YesDefeat audio cache : YesMake use of C2 pointers : No

Read offset correction : 48Overread into Lead-In and Lead-Out : NoFill up missing offset samples with silence : YesDelete leading and trailing silent blocks : NoNull samples used in CRC calculations : YesUsed interface : Native Win32 interface for Win NT & 2000

Used output format : Internal WAV RoutinesSample format : 44.100 Hz; 16 Bit; Stereo

TOC of the extracted CD

Track | Start | Length | Start sector | End sector --------------------------------------------------------- 1 | 0:00.32 | 4:29.23 | 32 | 20229 2 | 4:29.55 | 4:32.35 | 20230 | 40664 3 | 9:02.15 | 4:03.25 | 40665 | 58914 4 | 13:05.40 | 4:47.05 | 58915 | 80444 5 | 17:52.45 | 3:36.42 | 80445 | 96686 6 | 21:29.12 | 4:05.50 | 96687 | 115111 7 | 25:34.62 | 4:02.38 | 115112 | 133299 8 | 29:37.25 | 2:47.55 | 133300 | 145879 9 | 32:25.05 | 4:31.37 | 145880 | 166241 10 | 36:56.42 | 4:47.38 | 166242 | 187804 11 | 41:44.05 | 4:15.10 | 187805 | 206939

Range status and errors

Selected range

Filename D:\temp\Doc Eisenhauer - Rock n' Roll.wav

Peak level 91.6 % Range quality 100.0 % Copy CRC EE06164C Copy OK

No errors occurred

AccurateRip summary

Track 1 cannot be verified as accurate (confidence 1) [ECB803DE], AccurateRip returned [5834ACFF]Track 2 cannot be verified as accurate (confidence 1) [2775FA92], AccurateRip returned [99DE263C]Track 3 cannot be verified as accurate (confidence 1) [358F5772], AccurateRip returned [C76951A7]Track 4 cannot be verified as accurate (confidence 1) [79E5F6E4], AccurateRip returned [83322621]Track 5 cannot be verified as accurate (confidence 1) [7AC81E87], AccurateRip returned [AA7BD775]Track 6 cannot be verified as accurate (confidence 1) [7E591160], AccurateRip returned [64455F6E]Track 7 cannot be verified as accurate (confidence 1) [BEAD0A26], AccurateRip returned [A6D92558]Track 8 cannot be verified as accurate (confidence 1) [980C0334], AccurateRip returned [E1357D0A]Track 9 cannot be verified as accurate (confidence 1) [635E6DBD], AccurateRip returned [C5DE3183]Track 10 cannot be verified as accurate (confidence 1) [1028C284], AccurateRip returned [2E8FE50C]Track 11 cannot be verified as accurate (confidence 1) [EA114BA4], AccurateRip returned [1C9CF1D8]

No tracks could be verified as accurateYou may have a different pressing from the one(s) in the database

End of status report


Трекер:  [ 14-Окт-2012 11:09 ]

  

Скачать .torrent

Размер .torrent файла 27 KB


Размер: 337 MB
Хэш (hash) релиза: d2b2e973f58f9bf1f0b422ef77aaf70eb82e3a7f

Еще никто не оставлял запись к записи скачать торрент Doc Eisenhauer - Rock n Roll... bis der Arzt Kommt - 1996, APE . Будь первым!

!Обратная связь