Скачать через торрент музыку Led Zeppelin 1997-BBC Sessions бесплатно без регистрации torrent

Если у вас наблюдаются проблемы со скриншотами, переходом по ссылками, скачиванием торрентов - проблемы в блокировщике рекламы AdBlock. #хорошегоДня!


Статистика раздачи
Размер:  1.04 GB   |    Зарегистрирован:  5 лет 1 месяц   |    .torrent скачан:  31 раз   |   
Раздают:  1  
   
Загрузка...
 
Автор Сообщение

Galfimbul

avatar Galfimbul


1997-BBC Sessions
[2CD, AMCY-2401~2, Japan]

Жанр: Classic Hard Rock
Страна исполнителя: United Kingdom
Страна-производитель диска: Japan
Дата издания альбома: 1997•11•15
Издатель (лейбл): Atlantic / EastWest Japan
Номер по каталогу: AMCY-2401~2
Аудио кодек: FLAC (*.flac)
Тип рипа: image+.cue
Битрейт аудио: lossless
Продолжительность: 1:14:48 + 1:18:17 = 2:33:06
Источник (релизер): Japromarx (MMT)
Наличие сканов в содержимом раздачи:
CD1:
01. You Shook Me (5:15)
02. I Can't Quit You Baby (4:24)
03. Communication Breakdown (3:13)
04. Dazed And Confused (6:42)
05. The Girl I Love She Got Long Black Wavy Hair (3:03)
06. What Is And What Should Never Be (4:21)
07. Communication Breakdown (2:41)
08. Travelling Riverside Blues (5:12)
09. Whole Lotta Love (6:13)
10. Somethin' Else (2:08)
11. Communication Breakdown (3:05)
12. I Can't Quit You Baby (6:20)
13. You Shook Me (10:19)
14. How Many More Times (11:52)

CD2:
01. Immigrant Song (3:21)
02. Heartbreaker (5:16)
03. Since I've Been Loving You (6:56)
04. Black Dog (5:18)
05. Dazed And Confused (18:37)
06. Stairway To Heaven (8:50)
07. Going To California (3:55)
08. That's The Way (5:43)
09. Whole Lotta Love (Medley) (13:45)
10. Thank You (6:38)
Exact Audio Copy V0.99 prebeta 5 from 4. May 2009

Archivo Log de extracciones desde 2. Octubre 2012, 9:57

Led Zeppelin / BBC Sessions - Disc 1 - Japan (AMCY-2401)

Usar unidad : HL-DT-STDVDRAM GH22NS70 Adapter: 0 ID: 0

Modo de Lectura : SeguroUtilizar Corriente Exacta : SíDescartar Audio caché : SíUtilizar los punteros C2 : No

Corrección de Desplazamiento de Lectura : 667Sobreleer tanto en Lead-In como en Lead-Out : NoRellenar las muestras faltantes con silencios : SíEliminar silencios inicial y final : NoSe han usado muestras nulas en los cálculos CRC : SíInterfaz usada : Interfaz propio de Win32 para Windowns NT y 2000

Formato de Salida utilizado : Compresor definido por el usuarioBitrate seleccionado : 32 kBit/sCalidad : AltaAñadir Etiqueta ID3 : NoCompresor de linea de comandos : C:\Program Files (x86)\Exact Audio Copy\Flac\flac.exeOpciones adicionales en línea de comandos : -6 -V %s

TOC del CD extraido

Pista | Inicio | Duración | Sector inicial | Sector final ------------------------------------------------------------- 1 | 0:00.00 | 5:15.25 | 0 | 23649 2 | 5:15.25 | 4:23.60 | 23650 | 43434 3 | 9:39.10 | 3:12.45 | 43435 | 57879 4 | 12:51.55 | 6:41.68 | 57880 | 88022 5 | 19:33.48 | 3:03.17 | 88023 | 101764 6 | 22:36.65 | 4:20.48 | 101765 | 121312 7 | 26:57.38 | 2:41.07 | 121313 | 133394 8 | 29:38.45 | 5:11.73 | 133395 | 156792 9 | 34:50.43 | 6:13.25 | 156793 | 184792 10 | 41:03.68 | 2:07.60 | 184793 | 194377 11 | 43:11.53 | 3:05.15 | 194378 | 208267 12 | 46:16.68 | 6:20.37 | 208268 | 236804 13 | 52:37.30 | 10:19.30 | 236805 | 283259 14 | 62:56.60 | 11:51.58 | 283260 | 336642

Gama de estados y errores

Seleccionar gama

Nombre de Archivo E:\Música\EAC\Led Zeppelin\BBC Sessions\Led Zeppelin - BBC Sessions - Disc 1 - Japan (AMCY-2401).wav

Nivel Pico 97.6 % Gama de Calidad 100.0 % Test CRC ADE9E347 Copiar CRC ADE9E347 Copia OK

Sin Errores

Resumen AccurateRip

Pista 1 extraido de modo preciso (nivel de confianza 3) [CC060CD9]Pista 2 extraido de modo preciso (nivel de confianza 3) [05F2D9C0]Pista 3 extraido de modo preciso (nivel de confianza 3) [A0172073]Pista 4 extraido de modo preciso (nivel de confianza 3) [FFD1AD32]Pista 5 extraido de modo preciso (nivel de confianza 3) [B638F654]Pista 6 extraido de modo preciso (nivel de confianza 3) [17ADED6A]Pista 7 extraido de modo preciso (nivel de confianza 3) [CE56BCAA]Pista 8 extraido de modo preciso (nivel de confianza 3) [23F3F2F8]Pista 9 extraido de modo preciso (nivel de confianza 3) [E26CB6C2]Pista 10 extraido de modo preciso (nivel de confianza 3) [60F316E5]Pista 11 extraido de modo preciso (nivel de confianza 3) [A3EF776E]Pista 12 extraido de modo preciso (nivel de confianza 3) [95100C20]Pista 13 extraido de modo preciso (nivel de confianza 3) [D49E6A27]Pista 14 extraido de modo preciso (nivel de confianza 3) [CC8E3D6C]

Todas las pistas extraidas de modo preciso

Final del Informe
Exact Audio Copy V0.99 prebeta 5 from 4. May 2009

Archivo Log de extracciones desde 2. Octubre 2012, 10:20

Led Zeppelin / BBC Sessions - Disc 2 - Japan (AMCY-2402)

Usar unidad : HL-DT-STDVDRAM GH22NS70 Adapter: 0 ID: 0

Modo de Lectura : SeguroUtilizar Corriente Exacta : SíDescartar Audio caché : SíUtilizar los punteros C2 : No

Corrección de Desplazamiento de Lectura : 667Sobreleer tanto en Lead-In como en Lead-Out : NoRellenar las muestras faltantes con silencios : SíEliminar silencios inicial y final : NoSe han usado muestras nulas en los cálculos CRC : SíInterfaz usada : Interfaz propio de Win32 para Windowns NT y 2000

Formato de Salida utilizado : Compresor definido por el usuarioBitrate seleccionado : 32 kBit/sCalidad : AltaAñadir Etiqueta ID3 : NoCompresor de linea de comandos : C:\Program Files (x86)\Exact Audio Copy\Flac\flac.exeOpciones adicionales en línea de comandos : -6 -V %s

TOC del CD extraido

Pista | Inicio | Duración | Sector inicial | Sector final ------------------------------------------------------------- 1 | 0:00.00 | 3:20.50 | 0 | 15049 2 | 3:20.50 | 5:16.00 | 15050 | 38749 3 | 8:36.50 | 6:56.20 | 38750 | 69969 4 | 15:32.70 | 5:17.40 | 69970 | 93784 5 | 20:50.35 | 18:36.48 | 93785 | 177532 6 | 39:27.08 | 8:49.42 | 177533 | 217249 7 | 48:16.50 | 3:54.38 | 217250 | 234837 8 | 52:11.13 | 5:43.25 | 234838 | 260587 9 | 57:54.38 | 13:45.00 | 260588 | 322462 10 | 71:39.38 | 6:38.12 | 322463 | 352324

Gama de estados y errores

Seleccionar gama

Nombre de Archivo E:\Música\EAC\Led Zeppelin\BBC Sessions\Led Zeppelin - BBC Sessions - Disc 2 - Japan (AMCY-2402).wav

Nivel Pico 97.7 % Gama de Calidad 100.0 % Test CRC 830467E2 Copiar CRC 830467E2 Copia OK

Sin Errores

Resumen AccurateRip

Pista 1 no se puede verificar como preciso (confianza 3) [05276F37], AccurateRip devuelto [08FC6FF4]Pista 2 no se puede verificar como preciso (confianza 3) [D5DD441D], AccurateRip devuelto [E1EF1E35]Pista 3 no se puede verificar como preciso (confianza 3) [46445B4B], AccurateRip devuelto [CCC91C16]Pista 4 no se puede verificar como preciso (confianza 3) [8F43DE6D], AccurateRip devuelto [FFB74F90]Pista 5 no se puede verificar como preciso (confianza 3) [B8DF86A1], AccurateRip devuelto [C5AE003C]Pista 6 no se puede verificar como preciso (confianza 3) [8668159D], AccurateRip devuelto [19145B5D]Pista 7 no se puede verificar como preciso (confianza 3) [D1FC76B6], AccurateRip devuelto [7A6AC6C4]Pista 8 no se puede verificar como preciso (confianza 3) [5033E1CD], AccurateRip devuelto [67FD0453]Pista 9 no se puede verificar como preciso (confianza 3) [5C2562D0], AccurateRip devuelto [2A6D3F26]Pista 10 no se puede verificar como preciso (confianza 5) [4769406E], AccurateRip devuelto [F56AD91D]

No se verificará ninguna pista como precisaPuede que tengas una edición diferente a la(s) de la base de datos

Final del Informe
REM GENRE "Hard Rock"REM DATE 1997REM DISCID E011880EREM COMMENT "ExactAudioCopy v0.99pb5"PERFORMER "Led Zeppelin"TITLE "BBC Sessions - Disc 1 - Japan (AMCY-2401)"FILE "Led Zeppelin - BBC Sessions - Disc 1 - Japan (AMCY-2401).flac" WAVE TRACK 01 AUDIO TITLE "You Shook Me" PERFORMER "Led Zeppelin" INDEX 01 00:00:00 TRACK 02 AUDIO TITLE "I Can't Quit You Baby" PERFORMER "Led Zeppelin" INDEX 01 05:15:25 TRACK 03 AUDIO TITLE "Communication Breakdown" PERFORMER "Led Zeppelin" INDEX 00 09:38:23 INDEX 01 09:39:10 TRACK 04 AUDIO TITLE "Dazed And Confused" PERFORMER "Led Zeppelin" INDEX 00 12:50:73 INDEX 01 12:51:55 TRACK 05 AUDIO TITLE "The Girl I Love She Got Long Black Wavy Hair" PERFORMER "Led Zeppelin" INDEX 00 19:31:30 INDEX 01 19:33:48 TRACK 06 AUDIO TITLE "What Is And What Should Never Be" PERFORMER "Led Zeppelin" INDEX 00 22:34:15 INDEX 01 22:36:65 TRACK 07 AUDIO TITLE "Communication Breakdown" PERFORMER "Led Zeppelin" INDEX 00 26:56:50 INDEX 01 26:57:38 TRACK 08 AUDIO TITLE "Travelling Riverside Blues" PERFORMER "Led Zeppelin" INDEX 00 29:38:25 INDEX 01 29:38:45 TRACK 09 AUDIO TITLE "Whole Lotta Love" PERFORMER "Led Zeppelin" INDEX 01 34:50:43 TRACK 10 AUDIO TITLE "Somethin' Else" PERFORMER "Led Zeppelin" INDEX 00 41:00:28 INDEX 01 41:03:68 TRACK 11 AUDIO TITLE "Communication Breakdown" PERFORMER "Led Zeppelin" INDEX 00 43:10:30 INDEX 01 43:11:53 TRACK 12 AUDIO TITLE "I Can't Quit You Baby" PERFORMER "Led Zeppelin" INDEX 01 46:16:68 TRACK 13 AUDIO TITLE "You Shook Me" PERFORMER "Led Zeppelin" INDEX 01 52:37:30 TRACK 14 AUDIO TITLE "How Many More Times" PERFORMER "Led Zeppelin" INDEX 01 62:56:60
REM GENRE "Hard Rock"REM DATE 1997REM DISCID 8312590AREM COMMENT "ExactAudioCopy v0.99pb5"PERFORMER "Led Zeppelin"TITLE "BBC Sessions - Disc 2 - Japan (AMCY-2402)"FILE "Led Zeppelin - BBC Sessions - Disc 2 - Japan (AMCY-2402).flac" WAVE TRACK 01 AUDIO TITLE "Immigrant Song" PERFORMER "Led Zeppelin" INDEX 01 00:00:00 TRACK 02 AUDIO TITLE "Heartbreaker" PERFORMER "Led Zeppelin" INDEX 01 03:20:50 TRACK 03 AUDIO TITLE "Since I've Been Loving You" PERFORMER "Led Zeppelin" INDEX 01 08:36:50 TRACK 04 AUDIO TITLE "Black Dog" PERFORMER "Led Zeppelin" INDEX 01 15:32:70 TRACK 05 AUDIO TITLE "Dazed And Confused" PERFORMER "Led Zeppelin" INDEX 01 20:50:35 TRACK 06 AUDIO TITLE "Stairway To Heaven" PERFORMER "Led Zeppelin" INDEX 01 39:27:08 TRACK 07 AUDIO TITLE "Going To California" PERFORMER "Led Zeppelin" INDEX 01 48:16:50 TRACK 08 AUDIO TITLE "That's The Way" PERFORMER "Led Zeppelin" INDEX 01 52:11:13 TRACK 09 AUDIO TITLE "Whole Lotta Love (Medley)" PERFORMER "Led Zeppelin" INDEX 01 57:54:38 TRACK 10 AUDIO TITLE "Thank You" PERFORMER "Led Zeppelin" INDEX 01 71:39:38
[CUETools log; Date: 08.10.2012 12:19:33; Version: 2.1.4][CTDB TOCID: i7Sy1W_FSvrofHYknv9U5e8lQxA-] found.Track | CTDB Status 1 | (10/10) Accurately ripped 2 | (10/10) Accurately ripped 3 | (10/10) Accurately ripped 4 | (10/10) Accurately ripped 5 | (10/10) Accurately ripped 6 | (10/10) Accurately ripped 7 | (10/10) Accurately ripped 8 | (10/10) Accurately ripped 9 | (10/10) Accurately ripped 10 | (10/10) Accurately ripped 11 | (10/10) Accurately ripped 12 | (10/10) Accurately ripped 13 | (10/10) Accurately ripped 14 | (10/10) Accurately ripped[AccurateRip ID: 00211e21-01648ae5-e011880e] found.Track [ CRC | V2 ] Status 01 [cc060cd9|4ba5bd5f] (3+0/3) Accurately ripped 02 [05f2d9c0|367d8b65] (3+0/3) Accurately ripped 03 [a0172073|365cd997] (3+0/3) Accurately ripped 04 [ffd1ad32|a1c8a850] (3+0/3) Accurately ripped 05 [b638f654|f7d78272] (3+0/3) Accurately ripped 06 [17aded6a|91ef55f2] (3+0/3) Accurately ripped 07 [ce56bcaa|3fb8e839] (3+0/3) Accurately ripped 08 [23f3f2f8|91584047] (3+0/3) Accurately ripped 09 [e26cb6c2|2d1a9257] (3+0/3) Accurately ripped 10 [60f316e5|f39830ea] (3+0/3) Accurately ripped 11 [a3ef776e|b7da457a] (3+0/3) Accurately ripped 12 [95100c20|50ad0a5b] (3+0/3) Accurately ripped 13 [d49e6a27|07242839] (3+0/3) Accurately ripped 14 [cc8e3d6c|3ffe5d0b] (3+0/3) Accurately rippedOffsetted by -103: 01 [df128d50] (0/3) No match (V2 was not tested) 02 [847e6185] (0/3) No match (V2 was not tested) 03 [5acd81dc] (0/3) No match (V2 was not tested) 04 [47c50d6c] (0/3) No match (V2 was not tested) 05 [98739cd8] (0/3) No match (V2 was not tested) 06 [a1d2590c] (0/3) No match (V2 was not tested) 07 [b0eb041a] (0/3) No match (V2 was not tested) 08 [f3284ee1] (0/3) No match (V2 was not tested) 09 [7553c4ef] (0/3) No match (V2 was not tested) 10 [a22b8295] (0/3) No match (V2 was not tested) 11 [194659cd] (0/3) No match (V2 was not tested) 12 [94c7976e] (0/3) No match (V2 was not tested) 13 [7e5a787a] (0/3) No match (V2 was not tested) 14 [bac0283b] (0/3) No match (V2 was not tested)Offsetted by 127: 01 [d25c89ca] (0/3) No match (V2 was not tested) 02 [80494b33] (0/3) No match (V2 was not tested) 03 [7bbc76a2] (0/3) No match (V2 was not tested) 04 [16f2a3e8] (0/3) No match (V2 was not tested) 05 [23020b30] (0/3) No match (V2 was not tested) 06 [02799078] (0/3) No match (V2 was not tested) 07 [56084bba] (0/3) No match (V2 was not tested) 08 [71842aa7] (0/3) No match (V2 was not tested) 09 [1470218d] (0/3) No match (V2 was not tested) 10 [7176d7b5] (0/3) No match (V2 was not tested) 11 [6910aeed] (0/3) No match (V2 was not tested) 12 [22a0c686] (0/3) No match (V2 was not tested) 13 [58b02e7b] (0/3) No match (V2 was not tested) 14 [1632f6a8] (0/3) No match (V2 was not tested)Offsetted by 187: 01 [11d4034e] (0/3) No match (V2 was not tested) 02 [ee7e3a3f] (0/3) No match (V2 was not tested) 03 [f3a1c19e] (0/3) No match (V2 was not tested) 04 [84a57d40] (0/3) No match (V2 was not tested) 05 [688b5fa0] (0/3) No match (V2 was not tested) 06 [26d1b530] (0/3) No match (V2 was not tested) 07 [5fb6e3fa] (0/3) No match (V2 was not tested) 08 [396f9ba3] (0/3) No match (V2 was not tested) 09 [80ba4ff9] (0/3) No match (V2 was not tested) 10 [bdcd46f5] (0/3) No match (V2 was not tested) 11 [87568ed6] (0/3) No match (V2 was not tested) 12 [9b80b800] (0/3) No match (V2 was not tested) 13 [5b4199c6] (0/3) No match (V2 was not tested) 14 [a2a9adf2] (0/3) No match

Track Peak [ CRC32 ] [W/O NULL] -- 97,6 [ADE9E347] [4669E90C] 01 97,6 [D2182992] [2B6620C2] 02 97,5 [6A243173] [43BA498E] 03 94,2 [A40522F6] [BB30930D] 04 95,9 [E101708A] [277A04BF] 05 90,7 [C7BB6E29] [94CAE79B] 06 95,3 [DB14780E] [B2A7A27E] 07 90,2 [9734053D] [26AB95B9] 08 93,7 [93534579] [0F00AFF1] 09 92,1 [1A02AC90] [FAFB3304] 10 87,2 [10BC3418] [8BA8FD2B] 11 94,7 [FEE71839] [E3ECA984] 12 96,7 [3FDA51E5] [2537A11D] 13 97,1 [AA406F20] [FEF32357] 14 96,0 [78032BF8] [2A9E952A]
[CUETools log; Date: 08.10.2012 12:19:59; Version: 2.1.4][CTDB TOCID: zf0vgq4HmP4evp0nJ1bbKU1G8TE-] found.Track | CTDB Status 1 | (10/10) Accurately ripped 2 | (10/10) Accurately ripped 3 | (10/10) Accurately ripped 4 | (10/10) Accurately ripped 5 | (10/10) Accurately ripped 6 | (10/10) Accurately ripped 7 | (10/10) Accurately ripped 8 | (10/10) Accurately ripped 9 | (10/10) Accurately ripped 10 | (10/10) Accurately ripped[AccurateRip ID: 001b3318-00e1e939-8312590a] found.Track [ CRC | V2 ] Status 01 [05276f37|acbb414a] (0+0/5) No match 02 [d5dd441d|253f4b44] (0+0/5) No match 03 [46445b4b|4996c38c] (0+0/5) No match 04 [8f43de6d|6ad53cbb] (0+0/5) No match 05 [b8df86a1|0bab1fdb] (0+0/5) No match 06 [8668159d|28d9ce77] (0+0/5) No match 07 [d1fc76b6|ff89121c] (0+0/5) No match 08 [5033e1cd|5f1ce353] (0+0/5) No match 09 [5c2562d0|80a6fac5] (0+0/5) No match 10 [4769406e|57a69703] (0+0/7) No matchOffsetted by 361: 01 [08fc6ff4] (3/5) Accurately ripped 02 [e1ef1e35] (3/5) Accurately ripped 03 [ccc91c16] (3/5) Accurately ripped 04 [ffb74f90] (3/5) Accurately ripped 05 [c5ae003c] (3/5) Accurately ripped 06 [19145b5d] (3/5) Accurately ripped 07 [7a6ac6c4] (3/5) Accurately ripped 08 [67fd0453] (3/5) Accurately ripped 09 [2a6d3f26] (3/5) Accurately ripped 10 [f56ad91d] (5/7) Accurately rippedOffsetted by 313: 01 [37b7df25] (0/5) No match (V2 was not tested) 02 [20f4ed05] (0/5) No match (V2 was not tested) 03 [a1d66c71] (0/5) No match (V2 was not tested) 04 [2f032d25] (0/5) No match (V2 was not tested) 05 [12aa9573] (0/5) No match (V2 was not tested) 06 [ec699eb0] (0/5) No match (V2 was not tested) 07 [77780724] (0/5) No match (V2 was not tested) 08 [a1021caf] (0/5) No match (V2 was not tested) 09 [15361ade] (0/5) No match (V2 was not tested) 10 [711a4a8a] (0/7) No match (V2 was not tested)Offsetted by 411: 01 [dba90f89] (0/5) No match (V2 was not tested) 02 [7ea57e01] (0/5) No match (V2 was not tested) 03 [388de598] (0/5) No match (V2 was not tested) 04 [5d8f2e2d] (0/5) No match (V2 was not tested) 05 [0d4b8531] (0/5) No match (V2 was not tested) 06 [39b137a3] (0/5) No match (V2 was not tested) 07 [f4da4380] (0/5) No match (V2 was not tested) 08 [7c57f0f4] (0/5) No match (V2 was not tested) 09 [a7cf2314] (0/5) No match (V2 was not tested) 10 [d1587081] (0/7) No match (V2 was not tested)

Track Peak [ CRC32 ] [W/O NULL] -- 97,7 [830467E2] [B8CE6CAF] 01 96,2 [B59E9F02] [58743B63] 02 95,5 [47C9A80F] [76125C36] 03 95,5 [C458164D] [54AC3F78] 04 95,7 [76272C56] [432E8AB8] 05 97,7 [297A0A2E] [CE812EDF] 06 95,2 [5DEDAE43] [F5258F6D] 07 87,4 [11352756] [B0E8440C] 08 90,3 [F8656406] [ADE481F1] 09 96,5 [7759206C] [624CA638] 10 95,2 [6401AEC5] [006BF164]

This album was released on 11 November 1997 by Atlantic Records. This was the first release of new Led Zeppelin material in seven years. Disc 1 consists of material from four different 1969 BBC sessions. Disc 2 contains most of the 1 April 1971 concert from the Paris Theatre in London.
Огромное спасибо автору рипов!


Трекер:  [ 14-Окт-2012 11:09 ]

  

Скачать .torrent

Размер .torrent файла 13 KB


Размер: 1.04 GB
Хэш (hash) релиза: 9e3870e5c9c2ac5564e1ac51ca3d9c2e669d6f94

Торренты, похожие на Led Zeppelin 1997-BBC Sessions скачать торрент

Форум Название Автор Размер S L Добавлен
Rосk | Mеtаl | Аltеrnаtivе, Рunk, Indереndеnt (losslеss) ·· (Hard Rock, Blues Rock) Led Zeppelin - BBC Sessions (2 CD) - 1997, FLAC (image+.cue), lossless Galfimbul 1041312341993 MB 0 0 1297875752

20:02

16-Фев-11

Еще никто не оставлял запись к записи скачать торрент Led Zeppelin 1997-BBC Sessions . Будь первым!

!Обратная связь