Скачать через торрент музыку Naos - Roc Et Legends бесплатно без регистрации torrent

Если у вас наблюдаются проблемы со скриншотами, переходом по ссылками, скачиванием торрентов - проблемы в блокировщике рекламы AdBlock. #хорошегоДня!


Статистика раздачи
Размер:  253 MB   |    Зарегистрирован:  4 года 10 месяцев   |    .torrent скачан:  39 раз   |   
Раздают:  1  
   
Загрузка...
 
Автор Сообщение

Galfimbul

avatar Galfimbul


Naos - Roc Et Legends

Жанр: Neo Progressive
Год выпуска диска: 1990
Страна: France
Label: Baillemont prod.
Catalog Nr.: CD 921
Аудио кодек: FLAC
Тип рипа: image+.cue (test&copy)
Битрейт аудио: lossless
Продолжительность: 41:59
Источник: свой рип

Трэклист:
1. Mister Clown
2. Le Croqueur de Planetes
3. Julien
4. Noel Pour les Enfants
5. L'Assomoir
6. Univers Zero
7. Spectres Fantomes et Feux Follets Part I-II
8. Spectres Fantomes et Feux Follets Part III
9. La Legende de Khetevel

Total time: 41:59
- Philippe Mottee / vocals
- Lucien Pagano / guitars
- Zebulon / drums, programming
- Tidiane Sy / bass
- Eric Bonnafoux / keyboards
With:
- Eric Maquet / piano
- Michael Pagano / acoustic guitar
Об альбоме: Дебютный альбом широко известного, в узких кругах, французского нео-прогового проекта.
Exact Audio Copy V1.0 beta 3 from 29. August 2011

EAC extraction logfile from 7. October 2012, 14:23

Naos / Roc et Legends

Used drive : TEAC CD-W516EB Adapter: 0 ID: 0

Read mode : Secure
Utilize accurate stream : Yes
Defeat audio cache : Yes
Make use of C2 pointers : No

Read offset correction : 685
Overread into Lead-In and Lead-Out : No
Fill up missing offset samples with silence : Yes
Delete leading and trailing silent blocks : No
Null samples used in CRC calculations : Yes
Used interface : Native Win32 interface for Win NT & 2000

Used output format : User Defined Encoder
Selected bitrate : 1024 kBit/s
Quality : High
Add ID3 tag : Yes
Command line compressor : C:\Program Files (x86)\FLAC\flac.exe
Additional command line options : -6 -V -T "ARTIST=%artist%" -T "TITLE=%title%" -T "ALBUM=%albumtitle%" -T "DATE=%year%" -T "TRACKNUMBER=%tracknr%" -T "GENRE=%genre%" -T "COMMENT=%comment%" %source% -o %dest%

TOC of the extracted CD

Track | Start | Length | Start sector | End sector
---------------------------------------------------------
1 | 0:00.32 | 5:48.65 | 32 | 26196
2 | 5:49.22 | 6:31.58 | 26197 | 55579
3 | 12:21.05 | 4:36.35 | 55580 | 76314
4 | 16:57.40 | 3:54.72 | 76315 | 93936
5 | 20:52.37 | 4:44.38 | 93937 | 115274
6 | 25:37.00 | 4:44.72 | 115275 | 136646
7 | 30:21.72 | 4:34.53 | 136647 | 157249
8 | 34:56.50 | 2:25.30 | 157250 | 168154
9 | 37:22.05 | 4:36.45 | 168155 | 188899

Range status and errors

Selected range

Filename Y:\EAC\wurensh\NAOS\Naos - Roc et Legends.wav

Peak level 99.2 %
Extraction speed 7.2 X
Range quality 100.0 %
Test CRC 1FCC1109
Copy CRC 1FCC1109
Copy OK

No errors occurred

AccurateRip summary

Track 1 not present in database
Track 2 not present in database
Track 3 not present in database
Track 4 not present in database
Track 5 not present in database
Track 6 not present in database
Track 7 not present in database
Track 8 not present in database
Track 9 not present in database

None of the tracks are present in the AccurateRip database

End of status report
Коврики 300dpi в комплекте.
Progarchives info

Трекер:  [ 07-Окт-2012 18:30 ]

  

Скачать .torrent

Размер .torrent файла 20 KB


Размер: 253 MB
Хэш (hash) релиза: 8f0d46e4c76f3d68eba25c1ed79d541a98fa5a28

Еще никто не оставлял запись к записи скачать торрент Naos - Roc Et Legends . Будь первым!

!Обратная связь