Скачать через торрент музыку Mick Hutchinson and The Magic Dragon - Eclecticus - 1998, FLAC бесплатно без регистрации torrent

Если у вас наблюдаются проблемы со скриншотами, переходом по ссылками, скачиванием торрентов - проблемы в блокировщике рекламы AdBlock. #хорошегоДня!


Статистика раздачи
Размер:  359 MB   |    Зарегистрирован:  5 лет 1 месяц   |    .torrent скачан:  9 раз   |   
Раздают:  1  
   
Загрузка...
 
Автор Сообщение

Galfimbul

avatar Galfimbul


Mick Hutchinson and The Magic Dragon / Eclecticus

Жанр: Progressive Rock
Страна-производитель диска: UK
Год издания: 1998
Издатель (лейбл): Chrome Dreams
Номер по каталогу: CDCD5001
Страна: UK
Аудиокодек: FLAC (*.flac)
Тип рипа: tracks+.cue
Битрейт аудио: lossless
Продолжительность: 01:07:00
Источник (релизер): clustert
Наличие сканов в содержимом раздачи: да
Треклист:
1. Nite Sky
2. Dead Beat
3. Blues For Aldous
4. M.S.C.P.
5. Overland (Land Mass One)
6. Mara
7. Arcade
8. Krush
9. Sat Chit Ananda
10. Lila
11. Schizo Disco
12. Inside Out
13. Aranchala
14. The Credit Song
15. Uncredited
Exact Audio Copy V1.0 beta 3 from 29. August 2011

Отчёт EAC об извлечении, выполненном 7. октября 2012, 15:05

Mick Hutchinson & The Magic Dragon / Eclecticus

Дисковод: ASUS DRW-1814BLT Adapter: 6 ID: 0

Режим чтения : ДостоверностьИспользование точного потока : ДаОтключение кэша аудио : НетИспользование указателей C2 : Да

Коррекция смещения при чтении : 6Способность читать области Lead-in и Lead-out : НетЗаполнение пропущенных сэмплов тишиной : ДаУдаление блоков с тишиной в начале и конце : НетПри вычислениях CRC использовались нулевые сэмплы : ДаИнтерфейс : Встроенный Win32-интерфейс для Win NT/2000Обработка зазоров : Не обнаружено, добавлено к предыдущему треку

Выходной формат : Пользовательский кодировщикВыбранный битрейт : 768 kBit/sКачество : ВысокийДобавление ID3-тега : НетУтилита сжатия : C:\Program Files\Exact Audio Copy\FLAC\FLAC.EXEДополнительные параметры : -6 -V -T "ARTIST=%artist%" -T "TITLE=%title%" -T "ALBUM=%albumtitle%" -T "DATE=%year%" -T "TRACKNUMBER=%tracknr%" -T "GENRE=%genre%" -T "COMMENT=%comment%" -T "BAND=%albuminterpret%" -T "ALBUMARTIST=%albuminterpret%" -T "COMPOSER=%composer%" %haslyrics%--tag-from-file=LYRICS="%lyricsfile%"%haslyrics% -T "DISCNUMBER=%cdnumber%" -T "TOTALDISCS=%totalcds%" -T "TOTALTRACKS=%numtracks%" %hascover%--picture="%coverfile%"%hascover% %source% -o %dest%

TOC извлечённого CD

Трек | Старт | Длительность | Начальный сектор | Конечный сектор --------------------------------------------------------------------- 1 | 0:00.00 | 5:53.18 | 0 | 26492 2 | 5:53.18 | 3:53.61 | 26493 | 44028 3 | 9:47.04 | 1:29.35 | 44029 | 50738 4 | 11:16.39 | 4:43.22 | 50739 | 71985 5 | 15:59.61 | 7:18.17 | 71986 | 104852 6 | 23:18.03 | 7:10.49 | 104853 | 137151 7 | 30:28.52 | 4:30.71 | 137152 | 157472 8 | 34:59.48 | 3:22.66 | 157473 | 172688 9 | 38:22.39 | 6:16.04 | 172689 | 200892 10 | 44:38.43 | 2:28.74 | 200893 | 212066 11 | 47:07.42 | 0:36.74 | 212067 | 214840 12 | 47:44.41 | 3:29.59 | 214841 | 230574 13 | 51:14.25 | 11:08.71 | 230575 | 280745 14 | 62:23.21 | 4:10.02 | 280746 | 299497 15 | 66:33.23 | 0:27.10 | 299498 | 301532

Трек 1

Имя файла R:\Torrent завершенные\Mick Hutchinson & The Magic Dragon - Eclecticus, 1998\01 Трек01.wav

Пиковый уровень 79.7 % Скорость извлечения 12.0 X Качество трека 100.0 % CRC копии 620E608D Точное извлечение (достоверность 1) [A37142D9] (AR v2) Копирование... OK

Трек 2

Имя файла R:\Torrent завершенные\Mick Hutchinson & The Magic Dragon - Eclecticus, 1998\02 Трек02.wav

Пиковый уровень 92.6 % Скорость извлечения 12.7 X Качество трека 100.0 % CRC копии ABEA2A2D Точное извлечение (достоверность 1) [074B157C] (AR v2) Копирование... OK

Трек 3

Имя файла R:\Torrent завершенные\Mick Hutchinson & The Magic Dragon - Eclecticus, 1998\03 Трек03.wav

Пиковый уровень 76.0 % Скорость извлечения 14.0 X Качество трека 100.0 % CRC копии CC439710 Точное извлечение (достоверность 1) [3B353852] (AR v2) Копирование... OK

Трек 4

Имя файла R:\Torrent завершенные\Mick Hutchinson & The Magic Dragon - Eclecticus, 1998\04 Трек04.wav

Пиковый уровень 100.0 % Скорость извлечения 14.3 X Качество трека 99.9 % CRC копии 0343B109 Точное извлечение (достоверность 1) [B445145C] (AR v2) Копирование... OK

Трек 5

Имя файла R:\Torrent завершенные\Mick Hutchinson & The Magic Dragon - Eclecticus, 1998\05 Трек05.wav

Пиковый уровень 82.1 % Скорость извлечения 16.0 X Качество трека 100.0 % CRC копии B9613797 Точное извлечение (достоверность 1) [388BF369] (AR v2) Копирование... OK

Трек 6

Имя файла R:\Torrent завершенные\Mick Hutchinson & The Magic Dragon - Eclecticus, 1998\06 Трек06.wav

Пиковый уровень 82.5 % Скорость извлечения 18.8 X Качество трека 100.0 % CRC копии 47DDA95C Точное извлечение (достоверность 1) [BBD5D107] (AR v2) Копирование... OK

Трек 7

Имя файла R:\Torrent завершенные\Mick Hutchinson & The Magic Dragon - Eclecticus, 1998\07 Трек07.wav

Пиковый уровень 60.7 % Скорость извлечения 19.6 X Качество трека 100.0 % CRC копии C2ED8B85 Точное извлечение (достоверность 1) [5FAC9892] (AR v2) Копирование... OK

Трек 8

Имя файла R:\Torrent завершенные\Mick Hutchinson & The Magic Dragon - Eclecticus, 1998\08 Трек08.wav

Пиковый уровень 38.6 % Скорость извлечения 20.0 X Качество трека 100.0 % CRC копии 7CAA9146 Точное извлечение (достоверность 1) [819FB09F] (AR v2) Копирование... OK

Трек 9

Имя файла R:\Torrent завершенные\Mick Hutchinson & The Magic Dragon - Eclecticus, 1998\09 Трек09.wav

Пиковый уровень 68.1 % Скорость извлечения 21.5 X Качество трека 100.0 % CRC копии 68BC927A Точное извлечение (достоверность 1) [7E7A0658] (AR v2) Копирование... OK

Трек 10

Имя файла R:\Torrent завершенные\Mick Hutchinson & The Magic Dragon - Eclecticus, 1998\10 Трек10.wav

Пиковый уровень 94.4 % Скорость извлечения 21.1 X Качество трека 100.0 % CRC копии C5C1EEC2 Точное извлечение (достоверность 1) [41D0D604] (AR v2) Копирование... OK

Трек 11

Имя файла R:\Torrent завершенные\Mick Hutchinson & The Magic Dragon - Eclecticus, 1998\11 Трек11.wav

Пиковый уровень 53.6 % Скорость извлечения 10.4 X Качество трека 99.4 % CRC копии 151ACC1D Точное извлечение (достоверность 1) [D9EB29BA] (AR v2) Копирование... OK

Трек 12

Имя файла R:\Torrent завершенные\Mick Hutchinson & The Magic Dragon - Eclecticus, 1998\12 Трек12.wav

Пиковый уровень 92.2 % Скорость извлечения 18.7 X Качество трека 100.0 % CRC копии FAA8E5AC Точное извлечение (достоверность 1) [AF09F9FD] (AR v2) Копирование... OK

Трек 13

Имя файла R:\Torrent завершенные\Mick Hutchinson & The Magic Dragon - Eclecticus, 1998\13 Трек13.wav

Пиковый уровень 57.9 % Скорость извлечения 23.9 X Качество трека 100.0 % CRC копии 4D52AC6F Точное извлечение (достоверность 1) [A7F41810] (AR v2) Копирование... OK

Трек 14

Имя файла R:\Torrent завершенные\Mick Hutchinson & The Magic Dragon - Eclecticus, 1998\14 Трек14.wav

Пиковый уровень 83.9 % Скорость извлечения 24.1 X Качество трека 100.0 % CRC копии 5B481B88 Точное извлечение (достоверность 1) [FFA54B72] (AR v2) Копирование... OK

Трек 15

Имя файла R:\Torrent завершенные\Mick Hutchinson & The Magic Dragon - Eclecticus, 1998\15 Трек15.wav

Пиковый уровень 41.8 % Скорость извлечения 17.7 X Качество трека 100.0 % CRC копии 30CBC3E8 Точное извлечение (достоверность 1) [5D41528E] (AR v2) Копирование... OK

Все треки извлечены точно

Ошибок не произошло

Конец отчёта

------------------------------------------------------------

Exact Audio Copy V1.0 beta 3 from 29. August 2011

Отчёт EAC об извлечении, выполненном 7. октября 2012, 15:12

Mick Hutchinson & The Magic Dragon / Eclecticus

Дисковод: ASUS DRW-1814BLT Adapter: 6 ID: 0

Режим чтения : ДостоверностьИспользование точного потока : ДаОтключение кэша аудио : НетИспользование указателей C2 : Да

Коррекция смещения при чтении : 6Способность читать области Lead-in и Lead-out : НетЗаполнение пропущенных сэмплов тишиной : ДаУдаление блоков с тишиной в начале и конце : НетПри вычислениях CRC использовались нулевые сэмплы : ДаИнтерфейс : Встроенный Win32-интерфейс для Win NT/2000

Выходной формат : Пользовательский кодировщикВыбранный битрейт : 768 kBit/sКачество : ВысокийДобавление ID3-тега : НетУтилита сжатия : C:\Program Files\Exact Audio Copy\FLAC\FLAC.EXEДополнительные параметры : -6 -V -T "ARTIST=%artist%" -T "TITLE=%title%" -T "ALBUM=%albumtitle%" -T "DATE=%year%" -T "TRACKNUMBER=%tracknr%" -T "GENRE=%genre%" -T "COMMENT=%comment%" -T "BAND=%albuminterpret%" -T "ALBUMARTIST=%albuminterpret%" -T "COMPOSER=%composer%" %haslyrics%--tag-from-file=LYRICS="%lyricsfile%"%haslyrics% -T "DISCNUMBER=%cdnumber%" -T "TOTALDISCS=%totalcds%" -T "TOTALTRACKS=%numtracks%" %hascover%--picture="%coverfile%"%hascover% %source% -o %dest%

TOC извлечённого CD

Трек | Старт | Длительность | Начальный сектор | Конечный сектор --------------------------------------------------------------------- 1 | 0:00.00 | 5:53.18 | 0 | 26492 2 | 5:53.18 | 3:53.61 | 26493 | 44028 3 | 9:47.04 | 1:29.35 | 44029 | 50738 4 | 11:16.39 | 4:43.22 | 50739 | 71985 5 | 15:59.61 | 7:18.17 | 71986 | 104852 6 | 23:18.03 | 7:10.49 | 104853 | 137151 7 | 30:28.52 | 4:30.71 | 137152 | 157472 8 | 34:59.48 | 3:22.66 | 157473 | 172688 9 | 38:22.39 | 6:16.04 | 172689 | 200892 10 | 44:38.43 | 2:28.74 | 200893 | 212066 11 | 47:07.42 | 0:36.74 | 212067 | 214840 12 | 47:44.41 | 3:29.59 | 214841 | 230574 13 | 51:14.25 | 11:08.71 | 230575 | 280745 14 | 62:23.21 | 4:10.02 | 280746 | 299497 15 | 66:33.23 | 0:27.10 | 299498 | 301532

Характеристики диапазона извлечения и сообщения об ошибках

Выбранный диапазон

Имя файла R:\Torrent завершенные\Mick Hutchinson & The Magic Dragon - Eclecticus, 1998\Mick Hutchinson & The Magic Dragon - Eclecticus.wav

Пиковый уровень 100.0 % Скорость извлечения 19.1 X Качество диапазона 100.0 % CRC копии 90793584 Копирование... OK

Ошибок не произошло

AccurateRip: сводка

Трек 1 : извлечено точно (доверие 1) [A37142D9] (AR v2)Трек 2 : извлечено точно (доверие 1) [074B157C] (AR v2)Трек 3 : извлечено точно (доверие 1) [3B353852] (AR v2)Трек 4 : извлечено точно (доверие 1) [B445145C] (AR v2)Трек 5 : извлечено точно (доверие 1) [388BF369] (AR v2)Трек 6 : извлечено точно (доверие 1) [BBD5D107] (AR v2)Трек 7 : извлечено точно (доверие 1) [5FAC9892] (AR v2)Трек 8 : извлечено точно (доверие 1) [819FB09F] (AR v2)Трек 9 : извлечено точно (доверие 1) [7E7A0658] (AR v2)Трек 10 : извлечено точно (доверие 1) [41D0D604] (AR v2)Трек 11 : извлечено точно (доверие 1) [D9EB29BA] (AR v2)Трек 12 : извлечено точно (доверие 1) [AF09F9FD] (AR v2)Трек 13 : извлечено точно (доверие 1) [A7F41810] (AR v2)Трек 14 : извлечено точно (доверие 1) [FFA54B72] (AR v2)Трек 15 : извлечено точно (доверие 1) [5D41528E] (AR v2)

Все треки извлечены точно

Конец отчёта
REM GENRE "Progressive Rock"

REM DATE 1998

REM DISCID E00FB40F

REM COMMENT "ExactAudioCopy v1.0b3"

PERFORMER "Mick Hutchinson & The Magic Dragon"

TITLE "Eclecticus"

FILE "Mick Hutchinson & The Magic Dragon - Eclecticus.flac" WAVE

TRACK 01 AUDIO

TITLE "Трек01"

PERFORMER "Mick Hutchinson & The Magic Dragon"

FLAGS DCP

INDEX 01 00:00:00

TRACK 02 AUDIO

TITLE "Трек02"

PERFORMER "Mick Hutchinson & The Magic Dragon"

FLAGS DCP

INDEX 01 05:53:18

TRACK 03 AUDIO

TITLE "Трек03"

PERFORMER "Mick Hutchinson & The Magic Dragon"

FLAGS DCP

INDEX 01 09:47:04

TRACK 04 AUDIO

TITLE "Трек04"

PERFORMER "Mick Hutchinson & The Magic Dragon"

FLAGS DCP

INDEX 01 11:16:39

TRACK 05 AUDIO

TITLE "Трек05"

PERFORMER "Mick Hutchinson & The Magic Dragon"

FLAGS DCP

INDEX 01 15:59:61

TRACK 06 AUDIO

TITLE "Трек06"

PERFORMER "Mick Hutchinson & The Magic Dragon"

FLAGS DCP

INDEX 01 23:18:03

TRACK 07 AUDIO

TITLE "Трек07"

PERFORMER "Mick Hutchinson & The Magic Dragon"

FLAGS DCP

INDEX 01 30:28:52

TRACK 08 AUDIO

TITLE "Трек08"

PERFORMER "Mick Hutchinson & The Magic Dragon"

FLAGS DCP

INDEX 01 34:59:48

TRACK 09 AUDIO

TITLE "Трек09"

PERFORMER "Mick Hutchinson & The Magic Dragon"

FLAGS DCP

INDEX 01 38:22:39

TRACK 10 AUDIO

TITLE "Трек10"

PERFORMER "Mick Hutchinson & The Magic Dragon"

FLAGS DCP

INDEX 01 44:38:43

TRACK 11 AUDIO

TITLE "Трек11"

PERFORMER "Mick Hutchinson & The Magic Dragon"

FLAGS DCP

INDEX 01 47:07:42

TRACK 12 AUDIO

TITLE "Трек12"

PERFORMER "Mick Hutchinson & The Magic Dragon"

FLAGS DCP

INDEX 01 47:44:41

TRACK 13 AUDIO

TITLE "Трек13"

PERFORMER "Mick Hutchinson & The Magic Dragon"

FLAGS DCP

INDEX 01 51:14:25

TRACK 14 AUDIO

TITLE "Трек14"

PERFORMER "Mick Hutchinson & The Magic Dragon"

FLAGS DCP

INDEX 01 62:23:21

TRACK 15 AUDIO

TITLE "Трек15"

PERFORMER "Mick Hutchinson & The Magic Dragon"

FLAGS DCP

INDEX 00 66:32:39

INDEX 01 66:33:23
Mick Hutchinson - наиболее известен по группе: Clark-Hutchinson
Mick Hutchinson
Amanda Thompson
Keith Rodway
Frank Flood
B.L. Underwood


Трекер:  [ 07-Окт-2012 18:30 ]

  

Скачать .torrent

Размер .torrent файла 15 KB


Размер: 359 MB
Хэш (hash) релиза: f62da1e76164c95b6b321e90134f02618fadb6d5

Еще никто не оставлял запись к записи скачать торрент Mick Hutchinson and The Magic Dragon - Eclecticus - 1998, FLAC . Будь первым!

!Обратная связь