Скачать через торрент музыку Graham Bond - Love Is The Law - 1967 бесплатно без регистрации torrent

Если у вас наблюдаются проблемы со скриншотами, переходом по ссылками, скачиванием торрентов - проблемы в блокировщике рекламы AdBlock. #хорошегоДня!


Статистика раздачи
Размер:  361 MB   |    Зарегистрирован:  5 лет 1 месяц   |    .torrent скачан:  21 раз   |   
Раздают:  1  
   
Загрузка...
 
Автор Сообщение

Galfimbul

avatar Galfimbul


Graham Bond / Love Is The Law

Жанр: Progressive Rock, Blues Rock
Страна-производитель диска: EU
Год издания: 1967
Издатель (лейбл): Sunrise Records
Номер по каталогу: SR 40101012
Страна: England
Аудиокодек: FLAC (*.flac)
Тип рипа: tracks
Битрейт аудио: lossless
Продолжительность: 59:39
Источник (релизер): интернет
Наличие сканов в содержимом раздачи: да
Треклист:
1 Love Is the Law 4:31
2 Moving Towards the Light 4:29
3 Our Love Will Come Shining Through 3:05
4 I Couldn't Stand It Anymore 4:08
5 Sun Dance 2:24
6 Crossroads Time 2:35
7 Bad News Blues 2:49
8 Strange Times, Sad Times 4:00
9 The Naz 5:10
10 The World Will Soon Be Free 3:55
Bonus Tracks:
11 Long Tall Shorty 2:21
12 Long Legged Lady 2:17
13 Tell Me 2:50
14 Love Come Shining Through 2:02
15 Lease On Love 2:46
16 My Heart's in Little Pieces 3:22
17 St. James Infirmary 3:39
18 Soul Tango
Exact Audio Copy V0.99 prebeta 3 from 28. July 2007

Archivo Log de extracciones desde 23. Mayo 2010, 15:54

Graham(e) Bond / Love Is The Law

Usar unidad : TSSTcorpCDDVDW SH-S202N Adapter: 1 ID: 0

Modo de Lectura : SeguroUtilizar Corriente Exacta : SнDescartar Audio cachй : SнUtilizar los punteros C2 : No

Correcciуn de Desplazamiento de Lectura : 6Sobreleer tanto en Lead-In como en Lead-Out : NoRellenar las muestras faltantes con silencios : SнEliminar silencios inicial y final : NoSe han usado muestras nulas en los cбlculos CRC : NoInterfaz usada : Interfaz propio de Win32 para Windowns NT y 2000Gestiуn de Gaps : No detectada, pero aсadida a la pista previa

Formato de Salida utilizado : Rutinas WAV InternasFormato de Muestreo : 44.100 Hz; 16 Bit; Estйreo

TOC del CD extraido

Pista | Inicio | Duraciуn | Sector inicial | Sector final ------------------------------------------------------------- 1 | 0:00.00 | 4:31.16 | 0 | 20340 2 | 4:31.16 | 4:29.20 | 20341 | 40535 3 | 9:00.36 | 3:05.24 | 40536 | 54434 4 | 12:05.60 | 4:08.30 | 54435 | 73064 5 | 16:14.15 | 2:24.40 | 73065 | 83904 6 | 18:38.55 | 2:35.30 | 83905 | 95559 7 | 21:14.10 | 2:49.35 | 95560 | 108269 8 | 24:03.45 | 4:00.07 | 108270 | 126276 9 | 28:03.52 | 5:10.45 | 126277 | 149571 10 | 33:14.22 | 3:55.00 | 149572 | 167196 11 | 37:09.22 | 2:21.36 | 167197 | 177807 12 | 39:30.58 | 2:17.26 | 177808 | 188108 13 | 41:48.09 | 2:50.14 | 188109 | 200872 14 | 44:38.23 | 2:02.61 | 200873 | 210083 15 | 46:41.09 | 2:46.52 | 210084 | 222585 16 | 49:27.61 | 3:22.13 | 222586 | 237748 17 | 52:49.74 | 3:39.21 | 237749 | 254194 18 | 56:29.20 | 3:09.65 | 254195 | 268434

Pista 1

Nombre de Archivo C:\Graham(e) Bond - Love Is The Law (1967)\01 Love Is The Law.wav

Nivel Pico 99.3 % Calidad de Pista 100.0 % Copiar CRC 5750E616 Extracciуn precisa (nivel de confianza 2) [95FE966C] Copia OK

Pista 2

Nombre de Archivo C:\Graham(e) Bond - Love Is The Law (1967)\02 Moving Towards The Light.wav

Nivel Pico 99.3 % Calidad de Pista 100.0 % Copiar CRC 9595F469 Extracciуn precisa (nivel de confianza 2) [9D1C2162] Copia OK

Pista 3

Nombre de Archivo C:\Graham(e) Bond - Love Is The Law (1967)\03 Our Love Will Come Shining Through.wav

Nivel Pico 99.3 % Calidad de Pista 100.0 % Copiar CRC A6F7E432 Extracciуn precisa (nivel de confianza 2) [0337B28C] Copia OK

Pista 4

Nombre de Archivo C:\Graham(e) Bond - Love Is The Law (1967)\04 I Couldn't Stand It Anymore.wav

Nivel Pico 99.3 % Calidad de Pista 99.9 % Copiar CRC 01F3B60D Extracciуn precisa (nivel de confianza 2) [59E5B7EF] Copia OK

Pista 5

Nombre de Archivo C:\Graham(e) Bond - Love Is The Law (1967)\05 Sun Dance.wav

Nivel Pico 99.3 % Calidad de Pista 100.0 % Copiar CRC 76BE31DD Extracciуn precisa (nivel de confianza 2) [05224BE5] Copia OK

Pista 6

Nombre de Archivo C:\Graham(e) Bond - Love Is The Law (1967)\06 Crossroads Of Time.wav

Nivel Pico 99.3 % Calidad de Pista 99.9 % Copiar CRC E33C53E3 Extracciуn precisa (nivel de confianza 2) [002BB92E] Copia OK

Pista 7

Nombre de Archivo C:\Graham(e) Bond - Love Is The Law (1967)\07 Bad News Blues.wav

Nivel Pico 99.3 % Calidad de Pista 100.0 % Copiar CRC 65E46FDF Extracciуn precisa (nivel de confianza 2) [366692E7] Copia OK

Pista 8

Nombre de Archivo C:\Graham(e) Bond - Love Is The Law (1967)\08 Strange Times, Sad Times.wav

Nivel Pico 99.3 % Calidad de Pista 99.9 % Copiar CRC 92F22781 Extracciуn precisa (nivel de confianza 2) [C8F9E80D] Copia OK

Pista 9

Nombre de Archivo C:\Graham(e) Bond - Love Is The Law (1967)\09 The Naz.wav

Nivel Pico 99.3 % Calidad de Pista 100.0 % Copiar CRC 5B186DD7 Extracciуn precisa (nivel de confianza 2) [7E952DC2] Copia OK

Pista 10

Nombre de Archivo C:\Graham(e) Bond - Love Is The Law (1967)\10 The World Will Soon Be Free.wav

Nivel Pico 99.3 % Calidad de Pista 100.0 % Copiar CRC B38E9DD2 Extracciуn precisa (nivel de confianza 2) [D4A0C95A] Copia OK

Pista 11

Nombre de Archivo C:\Graham(e) Bond - Love Is The Law (1967)\11 Long Tall Shorty , Bonus Track.wav

Nivel Pico 100.0 % Calidad de Pista 100.0 % Copiar CRC 2A145FA5 Extracciуn precisa (nivel de confianza 2) [7DB9EEB5] Copia OK

Pista 12

Nombre de Archivo C:\Graham(e) Bond - Love Is The Law (1967)\12 Long Legged Lady , Bonus Track.wav

Nivel Pico 100.0 % Calidad de Pista 100.0 % Copiar CRC 7744D4D7 Extracciуn precisa (nivel de confianza 2) [B4161FFC] Copia OK

Pista 13

Nombre de Archivo C:\Graham(e) Bond - Love Is The Law (1967)\13 Tell Me , Bonus Track.wav

Nivel Pico 100.0 % Calidad de Pista 100.0 % Copiar CRC 03DB676E Extracciуn precisa (nivel de confianza 2) [BAF51F57] Copia OK

Pista 14

Nombre de Archivo C:\Graham(e) Bond - Love Is The Law (1967)\14 Love Come Shining Through , Bonus Track.wav

Nivel Pico 100.0 % Calidad de Pista 100.0 % Copiar CRC 346AE6D2 Extracciуn precisa (nivel de confianza 2) [629BC150] Copia OK

Pista 15

Nombre de Archivo C:\Graham(e) Bond - Love Is The Law (1967)\15 Lease On Love , Bonus Track.wav

Nivel Pico 100.0 % Calidad de Pista 99.9 % Copiar CRC 5B945134 Extracciуn precisa (nivel de confianza 2) [163CE6B1] Copia OK

Pista 16

Nombre de Archivo C:\Graham(e) Bond - Love Is The Law (1967)\16 My Heart's In Little Pieces , Bonus Track.wav

Nivel Pico 99.4 % Calidad de Pista 100.0 % Copiar CRC BA3D3444 Extracciуn precisa (nivel de confianza 2) [2CF2AE01] Copia OK

Pista 17

Nombre de Archivo C:\Graham(e) Bond - Love Is The Law (1967)\17 St James Infirmary , Bonus Track.wav

Nivel Pico 100.0 % Calidad de Pista 100.0 % Copiar CRC C0EBCA6E Extracciуn precisa (nivel de confianza 2) [BBCF9CA0] Copia OK

Pista 18

Nombre de Archivo C:\Graham(e) Bond - Love Is The Law (1967)\18 Soul Tango , Bonus Track.wav

Nivel Pico 99.8 % Calidad de Pista 100.0 % Copiar CRC 8CC51F78 Extracciуn precisa (nivel de confianza 2) [E6E5ABC9] Copia OK

Todas las pistas extraidas de modo preciso

Sin Errores

Final del Informe
Доп. информация: http://grahambond.org/

Трекер:  [ 07-Окт-2012 18:30 ]

  

Скачать .torrent

Размер .torrent файла 16 KB


Размер: 361 MB
Хэш (hash) релиза: 39995e469530b5450e2fa0bc4773a22f9df23966

Еще никто не оставлял запись к записи скачать торрент Graham Bond - Love Is The Law - 1967 . Будь первым!

!Обратная связь