Скачать через торрент музыку Various Artists - Drumbeat,Saturday Club And British Hits Of The Late ‘50s бесплатно без регистрации torrent

Если у вас наблюдаются проблемы со скриншотами, переходом по ссылками, скачиванием торрентов - проблемы в блокировщике рекламы AdBlock. #хорошегоДня!


Статистика раздачи
Размер:  426 MB   |    Зарегистрирован:  4 года 10 месяцев   |    .torrent скачан:  13 раз   |   
Раздают:  1  
   
Загрузка...
 
Автор Сообщение

Galfimbul

avatar Galfimbul


Drumbeat,Saturday Club And British Hits Of The Late ‘50s

Жанр: Rock'n'Roll / Rockabilly
Страна-производитель диска: EU
Год издания: 2010
Издатель (лейбл): Jasmine Records
Номер по каталогу: JASCD 580
Страна: UK
Аудиокодек: FLAC (*.flac)
Тип рипа: image+.cue
Битрейт аудио: lossless
Продолжительность: 61:05 ; 72:00
Источник (релизер): AUDELAS KINGDOM
Наличие сканов в содержимом раздачи: да
01. Tony Osborne and His Jazz Group / Saturday Jump
02. The King Brothers / Five Foot Two, Eyes Of Blue
03. Ricky Valance / Jimmy's Girl
04. Bert Weeden / The Creep
05. Johnny Kidd / Weep No More, My Baby
06. Sylvia Sands / My Funny Valentine
07. Johnny Angel / Pardon Me
08. Gary Mills / Don't Forget
09. Keith Kelly / I'll Take Romance
10. Colin Day / Till
11. Danny Davis / Take These Chains From My Heart
12. The John Barry Seven / Saturdays Child
13. Danny Davis / Saturday Date
14. Johnny Kidd / Big Blon' Baby
15. Garry Mills / You Alone
16. Bert Weedon / The Prowler
17. Keith Kelly / To Be With You
18. Sylvia Sands / I'm Beginning To See The Light
19. Johnny Angel / For A Little Girl
20. Tony Osborne & His Orchestra / Is There Any Chance
21. Ricky Valance / Say Hello (To A New Love)
22. The King Brothers / Jambalaya
23. The Bruisers / On The Sunny Side Of The Street
24. Tony Osborne and His Jazz Group / Saturday Jump (Reprise)
25. Cliff Richard / Move It
26. Marty Wilde / Endless Sleep
27. Tommy Steele / Come On Let's Go
28. Johnny Kidd & the Pirates / Please Don't Touch
29. Adam Faith / What Do You Want?
30. Cliff Richard / High Class Baby
31. Billy Fury / Maybe Tomorrow
32. Craig Douglas / Only Sixteen
33. Ken Mackintosh / Raunchy
34. Dickie Pride / Slippin' 'N' Slidin'
01. Cliff Richard / Mean Streak
02. Craig Douglas / Nothin' Shakin'
03. Emile Ford / What Do Want To Make Those Eyes At me For?
04. Cliff Richard / Apron Strings
05. Marty Wilde / Teenager In Love
06. The Mudlarks / Book Of Love
07. Duffy Power / Dream Lover
08. Tommy Steele / Tallahassee Lassie
09. Cliff Richard / Dynamite
10. Bob Miller & The Millermen / Bees Knees
11. The Kingpins / Shame On You, Miss Johnson
12. Roy Young / I Go Ape
13. Bob Miller & The Millermen / Catwalk
14. Vince Eager / It's Late
15. Sylvia Sands / Easy
16. The John Barry Seven / Little John
17. Adam Faith / Say Mama
18. Vince Eager / This Could Go On Forever
19. Bob Miller & The Millermen / Beatnik
20. Sylvia Sands / Fallin'
21. The Raindrops / Italian Style
22. Dennis Lotis / Get Happy
23. Bob Miller & The Millermen / Rockin' Sandy
24. The Raindrops / Hey! Miss Fannie!
25. Adam Faith / C'mon Everybody
26. Sylvia Sands / I'm In Love
27. The John Barry Seven / Rebel Rouser
28. Roy Young / Slippin' And Slidin'
29. The Kingpins / Don't Leave Me (Like This)
30. Vince Eager / It Doesn't Matter Anymore
31. Bob Miller & The Millermen / Compulsion
32. Adam Faith / Believe What You Say
33. The John Barry Seven / Mab Mab
34. Dennis Lotis / I'm In The Mood For Love
35. Bob Miller & The Millermen / Good Rockin' Tonight
Exact Audio Copy V1.0 beta 2 from 29. April 2011

EAC extraction logfile from 7. October 2012, 11:49

Various Artists / Drumbeat/Saturday Club And British Hits Of The Late ‘50s (Disc 1)

Used drive : _NEC DVD_RW ND-3550A Adapter: 1 ID: 0

Read mode : SecureUtilize accurate stream : YesDefeat audio cache : YesMake use of C2 pointers : No

Read offset correction : 48Overread into Lead-In and Lead-Out : NoFill up missing offset samples with silence : YesDelete leading and trailing silent blocks : NoNull samples used in CRC calculations : YesUsed interface : Native Win32 interface for Win NT & 2000

Used output format : User Defined EncoderSelected bitrate : 768 kBit/sQuality : HighAdd ID3 tag : NoCommand line compressor : C:\Program Files\Exact Audio Copy\FLAC\FLAC.EXEAdditional command line options : -6 -V -T "ARTIST=%artist%" -T "TITLE=%title%" -T "ALBUM=%albumtitle%" -T "DATE=%year%" -T "TRACKNUMBER=%tracknr%" -T "GENRE=%genre%" -T "COMMENT=%comment%" -T "BAND=%albuminterpret%" -T "COMPOSER=%composer%" %haslyrics%--ta

TOC of the extracted CD

Track | Start | Length | Start sector | End sector --------------------------------------------------------- 1 | 0:00.00 | 1:54.05 | 0 | 8554 2 | 1:54.05 | 2:05.14 | 8555 | 17943 3 | 3:59.19 | 2:21.34 | 17944 | 28552 4 | 6:20.53 | 1:51.74 | 28553 | 36951 5 | 8:12.52 | 3:13.56 | 36952 | 51482 6 | 11:26.33 | 2:41.53 | 51483 | 63610 7 | 14:08.11 | 1:45.72 | 63611 | 71557 8 | 15:54.08 | 1:59.57 | 71558 | 80539 9 | 17:53.65 | 1:38.16 | 80540 | 87905 10 | 19:32.06 | 2:42.01 | 87906 | 100056 11 | 22:14.07 | 1:37.39 | 100057 | 107370 12 | 23:51.46 | 2:31.58 | 107371 | 118753 13 | 26:23.29 | 2:04.51 | 118754 | 128104 14 | 28:28.05 | 2:06.07 | 128105 | 137561 15 | 30:34.12 | 2:54.36 | 137562 | 150647 16 | 33:28.48 | 1:36.57 | 150648 | 157904 17 | 35:05.30 | 2:45.72 | 157905 | 170351 18 | 37:51.27 | 2:09.73 | 170352 | 180099 19 | 40:01.25 | 2:22.31 | 180100 | 190780 20 | 42:23.56 | 2:05.38 | 190781 | 200193 21 | 44:29.19 | 2:09.33 | 200194 | 209901 22 | 46:38.52 | 1:52.19 | 209902 | 218320 23 | 48:30.71 | 2:24.25 | 218321 | 229145 24 | 50:55.21 | 1:20.09 | 229146 | 235154 25 | 52:15.30 | 2:23.50 | 235155 | 245929 26 | 54:39.05 | 2:20.44 | 245930 | 256473 27 | 56:59.49 | 1:58.06 | 256474 | 265329 28 | 58:57.55 | 1:50.29 | 265330 | 273608 29 | 60:48.09 | 1:38.20 | 273609 | 280978 30 | 62:26.29 | 2:09.29 | 280979 | 290682 31 | 64:35.58 | 2:14.19 | 290683 | 300751 32 | 66:50.02 | 2:13.65 | 300752 | 310791 33 | 69:03.67 | 2:19.60 | 310792 | 321276 34 | 71:23.52 | 2:18.60 | 321277 | 331686

Range status and errors

Selected range

Filename D:\Muzika\VA - Drumbeat Saturday Club And British Hits Of The Late '50s (2010)\Various Artists - Drumbeat,Saturday Club And British Hits Of The Late ‘50s (Disc 1).wav

Peak level 94.3 % Extraction speed 2.0 X Range quality 99.9 % Test CRC EEB1267E Copy CRC EEB1267E Copy OK

No errors occurred

AccurateRip summary

Track 1 not present in databaseTrack 2 not present in databaseTrack 3 not present in databaseTrack 4 not present in databaseTrack 5 not present in databaseTrack 6 not present in databaseTrack 7 not present in databaseTrack 8 not present in databaseTrack 9 not present in databaseTrack 10 not present in databaseTrack 11 not present in databaseTrack 12 not present in databaseTrack 13 not present in databaseTrack 14 not present in databaseTrack 15 not present in databaseTrack 16 not present in databaseTrack 17 not present in databaseTrack 18 not present in databaseTrack 19 not present in databaseTrack 20 not present in databaseTrack 21 not present in databaseTrack 22 not present in databaseTrack 23 not present in databaseTrack 24 not present in databaseTrack 25 not present in databaseTrack 26 not present in databaseTrack 27 not present in databaseTrack 28 not present in databaseTrack 29 not present in databaseTrack 30 not present in databaseTrack 31 not present in databaseTrack 32 not present in databaseTrack 33 not present in databaseTrack 34 not present in database

None of the tracks are present in the AccurateRip database

End of status report

==== Log checksum 4A565E98BAABF05CC5B0A2A3F881576D240B0C93561113CBC25CDE53C93556FC ====
Exact Audio Copy V1.0 beta 2 from 29. April 2011

EAC extraction logfile from 7. October 2012, 14:38

Various Artists / Drumbeat,Saturday Club And British Hits Of The Late ‘50s (Disc 2)

Used drive : _NEC DVD_RW ND-3550A Adapter: 1 ID: 0

Read mode : Secure
Utilize accurate stream : Yes
Defeat audio cache : Yes
Make use of C2 pointers : No

Read offset correction : 48
Overread into Lead-In and Lead-Out : No
Fill up missing offset samples with silence : Yes
Delete leading and trailing silent blocks : No
Null samples used in CRC calculations : Yes
Used interface : Native Win32 interface for Win NT & 2000

Used output format : User Defined Encoder
Selected bitrate : 768 kBit/s
Quality : High
Add ID3 tag : No
Command line compressor : C:\Program Files\Exact Audio Copy\FLAC\FLAC.EXE
Additional command line options : -6 -V -T "ARTIST=%artist%" -T "TITLE=%title%" -T "ALBUM=%albumtitle%" -T "DATE=%year%" -T "TRACKNUMBER=%tracknr%" -T "GENRE=%genre%" -T "COMMENT=%comment%" -T "BAND=%albuminterpret%" -T "COMPOSER=%composer%" %haslyrics%--ta

TOC of the extracted CD

Track | Start | Length | Start sector | End sector
---------------------------------------------------------
1 | 0:00.00 | 2:01.37 | 0 | 9111
2 | 2:01.37 | 2:31.54 | 9112 | 20490
3 | 4:33.16 | 2:06.55 | 20491 | 29995
4 | 6:39.71 | 2:49.36 | 29996 | 42706
5 | 9:29.32 | 2:22.12 | 42707 | 53368
6 | 11:51.44 | 2:10.33 | 53369 | 63151
7 | 14:02.02 | 2:24.12 | 63152 | 73963
8 | 16:26.14 | 2:04.58 | 73964 | 83321
9 | 18:30.72 | 1:53.07 | 83322 | 91803
10 | 20:24.04 | 2:06.66 | 91804 | 101319
11 | 22:30.70 | 1:18.03 | 101320 | 107172
12 | 23:48.73 | 1:49.38 | 107173 | 115385
13 | 25:38.36 | 2:00.48 | 115386 | 124433
14 | 27:39.09 | 1:37.03 | 124434 | 131711
15 | 29:16.12 | 2:02.34 | 131712 | 140895
16 | 31:18.46 | 1:39.02 | 140896 | 148322
17 | 32:57.48 | 1:07.56 | 148323 | 153403
18 | 34:05.29 | 2:39.54 | 153404 | 165382
19 | 36:45.08 | 1:57.31 | 165383 | 174188
20 | 38:42.39 | 2:12.42 | 174189 | 184130
21 | 40:55.06 | 1:54.42 | 184131 | 192722
22 | 42:49.48 | 1:46.35 | 192723 | 200707
23 | 44:36.08 | 1:29.69 | 200708 | 207451
24 | 46:06.02 | 1:45.21 | 207452 | 215347
25 | 47:51.23 | 1:32.22 | 215348 | 222269
26 | 49:23.45 | 2:03.11 | 222270 | 231505
27 | 51:26.56 | 1:53.10 | 231506 | 239990
28 | 53:19.66 | 1:17.25 | 239991 | 245790
29 | 54:37.16 | 1:39.39 | 245791 | 253254
30 | 56:16.55 | 1:46.06 | 253255 | 261210
31 | 58:02.61 | 1:55.02 | 261211 | 269837
32 | 59:57.63 | 1:49.20 | 269838 | 278032
33 | 61:47.08 | 1:56.44 | 278033 | 286776
34 | 63:43.52 | 2:56.19 | 286777 | 299995
35 | 66:39.71 | 1:41.09 | 299996 | 307579

Range status and errors

Selected range

Filename D:\Muzika\VA - Drumbeat Saturday Club And British Hits Of The Late '50s (2010)\Various Artists - Drumbeat,Saturday Club And British Hits Of The Late ‘50s (Disc 2).wav

Peak level 94.3 %
Extraction speed 2.0 X
Range quality 99.9 %
Test CRC 99A027E7
Copy CRC 99A027E7
Copy OK

No errors occurred

AccurateRip summary

Track 1 not present in database
Track 2 not present in database
Track 3 not present in database
Track 4 not present in database
Track 5 not present in database
Track 6 not present in database
Track 7 not present in database
Track 8 not present in database
Track 9 not present in database
Track 10 not present in database
Track 11 not present in database
Track 12 not present in database
Track 13 not present in database
Track 14 not present in database
Track 15 not present in database
Track 16 not present in database
Track 17 not present in database
Track 18 not present in database
Track 19 not present in database
Track 20 not present in database
Track 21 not present in database
Track 22 not present in database
Track 23 not present in database
Track 24 not present in database
Track 25 not present in database
Track 26 not present in database
Track 27 not present in database
Track 28 not present in database
Track 29 not present in database
Track 30 not present in database
Track 31 not present in database
Track 32 not present in database
Track 33 not present in database
Track 34 not present in database
Track 35 not present in database

None of the tracks are present in the AccurateRip database

End of status report

==== Log checksum B746BFFDA18CE99CDE07497788418C17111B4900F29B3FC26E0008CEB03AB1F5 ====


Трекер:  [ 07-Окт-2012 18:30 ]

  

Скачать .torrent

Размер .torrent файла 18 KB


Размер: 426 MB
Хэш (hash) релиза: c780fb2eaba9c5f9565abc94a9526f421c8cd2f8

Еще никто не оставлял запись к записи скачать торрент Various Artists - Drumbeat,Saturday Club And British Hits Of The Late ‘50s . Будь первым!

!Обратная связь