Скачать через торрент музыку Uriah Heep - Sea Of Light бесплатно без регистрации torrent

Если у вас наблюдаются проблемы со скриншотами, переходом по ссылками, скачиванием торрентов - проблемы в блокировщике рекламы AdBlock. #хорошегоДня!


Статистика раздачи
Размер:  533 MB   |    Зарегистрирован:  5 лет 1 месяц   |    .torrent скачан:  37 раз   |   
Раздают:  1  
   
Загрузка...
 
Автор Сообщение

Galfimbul

avatar Galfimbul


Uriah Heep / Sea Of Light (Japanese 1st Press)

Жанр: Hard Rock
Страна-производитель диска: Japan
Год издания: 1995
Издатель (лейбл): Teichiku Records
Номер по каталогу: TECW-25020
Страна: England
Аудиокодек: FLAC (*.flac)
Тип рипа: image+.cue
Битрейт аудио: lossless
Продолжительность: 61 минута
Источник (релизер): собственный рип
Наличие сканов в содержимом раздачи: да

Треклист:
1. Against The Odds - 6:12
2. Sweet Sugar - 4:42
3. Time Of Revelation - 4:02
4. Mistress Of All Time - 5:33
5. Universal Wheels - 5:39
6. Fear Of Falling - 4:38
7. Spirit Of Freedom - 4:17
8. Logical Progression - 6:09
9. Love In Silence - 6:48
10. Words In The Distance - 4:46
11. Fires Of Hell - 3:56
12. Dream On - 4:27
Exact Audio Copy V1.0 beta 3 from 29. August 2011

EAC extraction logfile from 7. October 2012, 10:54

Uriah Heep / Sea Of Light

Used drive : SlimtypeDVD A DS8A5SH Adapter: 0 ID: 1

Read mode : SecureUtilize accurate stream : YesDefeat audio cache : YesMake use of C2 pointers : No

Read offset correction : 6Overread into Lead-In and Lead-Out : NoFill up missing offset samples with silence : YesDelete leading and trailing silent blocks : NoNull samples used in CRC calculations : YesUsed interface : Native Win32 interface for Win NT & 2000

Used output format : User Defined EncoderSelected bitrate : 320 kBit/sQuality : HighAdd ID3 tag : NoCommand line compressor : C:\Program Files (x86)\Exact Audio Copy\Flac\flac.exeAdditional command line options : -V -8 -T "Date=%year%" -T "Genre=%genre%" %source%

TOC of the extracted CD

Track | Start | Length | Start sector | End sector --------------------------------------------------------- 1 | 0:00.32 | 6:12.60 | 32 | 27991 2 | 6:13.17 | 4:43.25 | 27992 | 49241 3 | 10:56.42 | 4:02.28 | 49242 | 67419 4 | 14:58.70 | 5:33.07 | 67420 | 92401 5 | 20:32.02 | 5:39.08 | 92402 | 117834 6 | 26:11.10 | 4:38.70 | 117835 | 138754 7 | 30:50.05 | 4:14.35 | 138755 | 157839 8 | 35:04.40 | 6:12.60 | 157840 | 185799 9 | 41:17.25 | 6:48.02 | 185800 | 216401 10 | 48:05.27 | 4:46.00 | 216402 | 237851 11 | 52:51.27 | 3:56.65 | 237852 | 255616 12 | 56:48.17 | 4:26.53 | 255617 | 275619

Range status and errors

Selected range

Filename D:\My Music\Uriah Heep - 1995 Sea Of Light (Japanese Edition)\Uriah Heep - Sea Of Light.wav

Peak level 95.5 % Extraction speed 3.0 X Range quality 99.9 % Test CRC 91C65491 Copy CRC 91C65491 Copy OK

No errors occurred

AccurateRip summary

Track 1 cannot be verified as accurate (confidence 14) [FB338933], AccurateRip returned [E68B90AE] (AR v2)Track 2 cannot be verified as accurate (confidence 14) [595480D3], AccurateRip returned [09C5422A] (AR v2)Track 3 cannot be verified as accurate (confidence 14) [B4D4C96A], AccurateRip returned [B8542926] (AR v2)Track 4 cannot be verified as accurate (confidence 14) [E5036A54], AccurateRip returned [733A1424] (AR v2)Track 5 cannot be verified as accurate (confidence 13) [FAE40F67], AccurateRip returned [D6584047] (AR v2)Track 6 cannot be verified as accurate (confidence 14) [79C16527], AccurateRip returned [D2E1AFDA] (AR v2)Track 7 cannot be verified as accurate (confidence 14) [2CB27ADD], AccurateRip returned [562F42EA] (AR v2)Track 8 cannot be verified as accurate (confidence 14) [155F1179], AccurateRip returned [F3479F1E] (AR v2)Track 9 cannot be verified as accurate (confidence 14) [8B41DDB7], AccurateRip returned [6AE01C90] (AR v2)Track 10 cannot be verified as accurate (confidence 14) [E91EC338], AccurateRip returned [BF014C9D] (AR v2)Track 11 cannot be verified as accurate (confidence 14) [9CA0275C], AccurateRip returned [3D6B8F75] (AR v2)Track 12 cannot be verified as accurate (confidence 13) [CAF8E90C], AccurateRip returned [C5208330] (AR v2)

No tracks could be verified as accurateYou may have a different pressing from the one(s) in the database

End of status report

==== Log checksum 56E1392E685C2576397C9BF45608A4FB9498F4601DD6913823443E594E43663A ====


Трекер:  [ 07-Окт-2012 18:30 ]

  

Скачать .torrent

Размер .torrent файла 12 KB


Размер: 533 MB
Хэш (hash) релиза: 497158107210b10ef19a55d1bd4fec6ad599d7bf

Торренты, похожие на Uriah Heep - Sea Of Light скачать торрент

Форум Название Автор Размер S L Добавлен
Rосk | Mеtаl | Аltеrnаtivе, Рunk, Indереndеnt (losslеss) ·· (Rock / Hard Rock) Uriah Heep - Sea Of Light - 1995, FLAC (image+.cue), lossless uzi2009 437560472417 MB 0 0 1297876353

20:12

16-Фев-11

Еще никто не оставлял запись к записи скачать торрент Uriah Heep - Sea Of Light . Будь первым!

!Обратная связь