Скачать через торрент музыку The Traveling Wilburys - Vol. 3 бесплатно без регистрации torrent

Если у вас наблюдаются проблемы со скриншотами, переходом по ссылками, скачиванием торрентов - проблемы в блокировщике рекламы AdBlock. #хорошегоДня!


Статистика раздачи
Размер:  260 MB   |    Зарегистрирован:  5 лет   |    .torrent скачан:  22 раза   |   
Раздают:  1  
   
Загрузка...
 
Автор Сообщение

Galfimbul

avatar Galfimbul


The Traveling Wilburys - Vol.3
Страна:
Жанр: Classic Rock
Страна-производитель диска: Canada
Год издания диска: 1990
Label: Wilbury/Warner Bros. Records
Catalog# CD 26324
Аудиокодек: FLAC (*.flac)
Тип рипа: tracks+.cue
Битрейт аудио: lossless
Продолжительность: 00:36:11.133 (95 746 980 samples)
Источник (релизер): What.cd
Scans: Front

Треклист:
01. She's My Baby
02. Inside Out
03. If You Belonged to Me
04. Devil's Been Busy
05. 7 Deadly Sins
06. Poor House
07. Where Were You Last Night?
08. Cool Dry Place
09. New Blue Moon
10. You Took My Breath Away
11. Wilbury Twist
Exact Audio Copy V0.99 prebeta 4 from 23. January 2008

EAC extraction logfile from 27. July 2008, 23:33

Traveling Wilburys / Traveling Wilburys, Vol. 3

Used drive : LITE-ON DVDRW LH-20A1S Adapter: 3 ID: 0

Read mode : SecureUtilize accurate stream : YesDefeat audio cache : YesMake use of C2 pointers : No

Read offset correction : 6Overread into Lead-In and Lead-Out : NoFill up missing offset samples with silence : YesDelete leading and trailing silent blocks : NoNull samples used in CRC calculations : YesUsed interface : Installed external ASPI interfaceGap handling : Appended to previous track

Used output format : User Defined EncoderSelected bitrate : 1024 kBit/sQuality : HighAdd ID3 tag : NoCommand line compressor : C:\Program Files\FLAC\flac.exeAdditional command line options : -8 -A tukey(0.25) -A gauss(0.1875) -b 4096 -V -T "artist=%a" -T "title=%t" -T "album=%g" -T "date=%y" -T "tracknumber=%n" -T "genre=%m" %s --sector-align

TOC of the extracted CD

Track | Start | Length | Start sector | End sector --------------------------------------------------------- 1 | 0:00.32 | 3:14.40 | 32 | 14621 2 | 3:14.72 | 3:35.23 | 14622 | 30769 3 | 6:50.20 | 3:13.35 | 30770 | 45279 4 | 10:03.55 | 3:17.72 | 45280 | 60126 5 | 13:21.52 | 3:17.73 | 60127 | 74974 6 | 16:39.50 | 3:16.42 | 74975 | 89716 7 | 19:56.17 | 3:03.50 | 89717 | 103491 8 | 22:59.67 | 3:37.00 | 103492 | 119766 9 | 26:36.67 | 3:20.13 | 119767 | 134779 10 | 29:57.05 | 3:18.35 | 134780 | 149664 11 | 33:15.40 | 2:56.02 | 149665 | 162866

Track 1

Filename E:\FLAC\Traveling Wilburys\Traveling Wilburys, Vol. 3\01 - She's My Baby.wav

Pre-gap length 0:00:02.42

Peak level 94.6 % Track quality 100.0 % Test CRC 2DFF0A89 Copy CRC 2DFF0A89 Accurately ripped (confidence 63) [986CFE21] Copy OK

Track 2

Filename E:\FLAC\Traveling Wilburys\Traveling Wilburys, Vol. 3\02 - Inside Out.wav

Pre-gap length 0:00:00.56

Peak level 94.6 % Track quality 100.0 % Test CRC 90FBAB67 Copy CRC 90FBAB67 Accurately ripped (confidence 63) [90E4B3F3] Copy OK

Track 3

Filename E:\FLAC\Traveling Wilburys\Traveling Wilburys, Vol. 3\03 - If You Belonged To Me.wav

Pre-gap length 0:00:01.53

Peak level 94.6 % Track quality 100.0 % Test CRC 6FD31E6E Copy CRC 6FD31E6E Accurately ripped (confidence 64) [CFBF1556] Copy OK

Track 4

Filename E:\FLAC\Traveling Wilburys\Traveling Wilburys, Vol. 3\04 - The Devil's Been Busy.wav

Pre-gap length 0:00:02.04

Peak level 94.6 % Track quality 100.0 % Test CRC 6A0A09DB Copy CRC 6A0A09DB Accurately ripped (confidence 62) [98A5A097] Copy OK

Track 5

Filename E:\FLAC\Traveling Wilburys\Traveling Wilburys, Vol. 3\05 - 7 Deadly Sins.wav

Pre-gap length 0:00:01.13

Peak level 94.6 % Track quality 100.0 % Test CRC 8262DBAE Copy CRC 8262DBAE Accurately ripped (confidence 63) [A2A58218] Copy OK

Track 6

Filename E:\FLAC\Traveling Wilburys\Traveling Wilburys, Vol. 3\06 - Poor House.wav

Pre-gap length 0:00:01.53

Peak level 94.6 % Track quality 99.9 % Test CRC 337D246A Copy CRC 337D246A Accurately ripped (confidence 64) [EE3BDA79] Copy OK

Track 7

Filename E:\FLAC\Traveling Wilburys\Traveling Wilburys, Vol. 3\07 - Where Were You Last Night .wav

Pre-gap length 0:00:02.73

Peak level 94.6 % Track quality 100.0 % Test CRC AF263DA1 Copy CRC AF263DA1 Accurately ripped (confidence 65) [53CF3A28] Copy OK

Track 8

Filename E:\FLAC\Traveling Wilburys\Traveling Wilburys, Vol. 3\08 - Cool Dry Place.wav

Pre-gap length 0:00:01.80

Peak level 99.8 % Track quality 100.0 % Test CRC 86A4D28B Copy CRC 86A4D28B Accurately ripped (confidence 62) [EBD3A5BB] Copy OK

Track 9

Filename E:\FLAC\Traveling Wilburys\Traveling Wilburys, Vol. 3\09 - New Blue Moon.wav

Pre-gap length 0:00:03.16

Peak level 94.6 % Track quality 100.0 % Test CRC 02295663 Copy CRC 02295663 Accurately ripped (confidence 62) [97EBD780] Copy OK

Track 10

Filename E:\FLAC\Traveling Wilburys\Traveling Wilburys, Vol. 3\10 - You Took My Breath Away.wav

Pre-gap length 0:00:03.53

Peak level 92.5 % Track quality 100.0 % Test CRC 99E07A43 Copy CRC 99E07A43 Accurately ripped (confidence 63) [433A98D3] Copy OK

Track 11

Filename E:\FLAC\Traveling Wilburys\Traveling Wilburys, Vol. 3\11 - Wilbury Twist.wav

Pre-gap length 0:00:00.57

Peak level 94.6 % Track quality 100.0 % Test CRC 1CA3401F Copy CRC 1CA3401F Accurately ripped (confidence 63) [FE944182] Copy OK

All tracks accurately ripped

No errors occurred

End of status report
REM GENRE RockREM DATE 1990REM DISCID 9C087B0BREM COMMENT "ExactAudioCopy v0.99pb4"CATALOG 0075992632423PERFORMER "Traveling Wilburys"TITLE "Traveling Wilburys, Vol. 3"FILE "Traveling Wilburys\Traveling Wilburys, Vol. 3\01 - She's My Baby.wav" WAVE TRACK 01 AUDIO TITLE "She's My Baby" PERFORMER "Traveling Wilburys" PREGAP 00:00:32 INDEX 01 00:00:00 TRACK 02 AUDIO TITLE "Inside Out" PERFORMER "Traveling Wilburys" INDEX 00 03:13:73FILE "Traveling Wilburys\Traveling Wilburys, Vol. 3\02 - Inside Out.wav" WAVE INDEX 01 00:00:00 TRACK 03 AUDIO TITLE "If You Belonged To Me" PERFORMER "Traveling Wilburys" INDEX 00 03:33:58FILE "Traveling Wilburys\Traveling Wilburys, Vol. 3\03 - If You Belonged To Me.wav" WAVE INDEX 01 00:00:00 TRACK 04 AUDIO TITLE "The Devil's Been Busy" PERFORMER "Traveling Wilburys" INDEX 00 03:11:32FILE "Traveling Wilburys\Traveling Wilburys, Vol. 3\04 - The Devil's Been Busy.wav" WAVE INDEX 01 00:00:00 TRACK 05 AUDIO TITLE "7 Deadly Sins" PERFORMER "Traveling Wilburys" INDEX 00 03:16:62FILE "Traveling Wilburys\Traveling Wilburys, Vol. 3\05 - 7 Deadly Sins.wav" WAVE INDEX 01 00:00:00 TRACK 06 AUDIO TITLE "Poor House" PERFORMER "Traveling Wilburys" INDEX 00 03:16:33FILE "Traveling Wilburys\Traveling Wilburys, Vol. 3\06 - Poor House.wav" WAVE INDEX 01 00:00:00 TRACK 07 AUDIO TITLE "Where Were You Last Night?" PERFORMER "Traveling Wilburys" INDEX 00 03:13:62FILE "Traveling Wilburys\Traveling Wilburys, Vol. 3\07 - Where Were You Last Night .wav" WAVE INDEX 01 00:00:00 TRACK 08 AUDIO TITLE "Cool Dry Place" PERFORMER "Traveling Wilburys" INDEX 00 03:01:65FILE "Traveling Wilburys\Traveling Wilburys, Vol. 3\08 - Cool Dry Place.wav" WAVE INDEX 01 00:00:00 TRACK 09 AUDIO TITLE "New Blue Moon" PERFORMER "Traveling Wilburys" INDEX 00 03:33:63FILE "Traveling Wilburys\Traveling Wilburys, Vol. 3\09 - New Blue Moon.wav" WAVE INDEX 01 00:00:00 TRACK 10 AUDIO TITLE "You Took My Breath Away" PERFORMER "Traveling Wilburys" INDEX 00 03:16:48FILE "Traveling Wilburys\Traveling Wilburys, Vol. 3\10 - You Took My Breath Away.wav" WAVE INDEX 01 00:00:00 TRACK 11 AUDIO TITLE "Wilbury Twist" PERFORMER "Traveling Wilburys" INDEX 00 03:17:67FILE "Traveling Wilburys\Traveling Wilburys, Vol. 3\11 - Wilbury Twist.wav" WAVE INDEX 01 00:00:00
[CUETools log; Date: 07.10.2012 16:31:37; Version: 2.1.4]Pregap length 00:00:32.[CTDB TOCID: KQpJO_MFA2skLEHMSQcToHsaNW4-] found.Track | CTDB Status 1 | (2/2) Accurately ripped 2 | (2/2) Accurately ripped 3 | (2/2) Accurately ripped 4 | (2/2) Accurately ripped 5 | (2/2) Accurately ripped 6 | (2/2) Accurately ripped 7 | (2/2) Accurately ripped 8 | (2/2) Accurately ripped 9 | (2/2) Accurately ripped 10 | (2/2) Accurately ripped 11 | (2/2) Accurately ripped[AccurateRip ID: 000f0bee-00823e10-9c087b0b] found.Track [ CRC | V2 ] Status 01 [986cfe21|c9a3c71c] (137+022/230) Accurately ripped 02 [90e4b3f3|4657f7b7] (136+023/232) Accurately ripped 03 [cfbf1556|e0d5a7c2] (136+024/231) Accurately ripped 04 [98a5a097|f7d70a47] (135+024/230) Accurately ripped 05 [a2a58218|34654e4a] (137+024/232) Accurately ripped 06 [ee3bda79|ee882424] (135+024/231) Accurately ripped 07 [53cf3a28|0e94f652] (136+023/230) Accurately ripped 08 [ebd3a5bb|9b638e04] (135+024/230) Accurately ripped 09 [97ebd780|d80a2123] (135+024/230) Accurately ripped 10 [433a98d3|bf47e571] (134+022/226) Accurately ripped 11 [fe944182|3b5652f0] (133+022/228) Accurately rippedOffsetted by -1612: 01 [f31c487e] (007/230) Accurately ripped 02 [50dc930f] (007/232) Accurately ripped 03 [cacc21b2] (007/231) Accurately ripped 04 [7452a97f] (007/230) Accurately ripped 05 [319eda84] (007/232) Accurately ripped 06 [76201991] (007/231) Accurately ripped 07 [a0978904] (007/230) Accurately ripped 08 [df958493] (007/230) Accurately ripped 09 [a7d57738] (007/230) Accurately ripped 10 [4e9e8eb7] (007/226) Accurately ripped 11 [7b4433d2] (007/228) Accurately rippedOffsetted by -954: 01 [47330f00] (053/230) Accurately ripped 02 [aad6ffc5] (055/232) Accurately ripped 03 [fe5dac88] (053/231) Accurately ripped 04 [a246ca63] (053/230) Accurately ripped 05 [a22379c2] (053/232) Accurately ripped 06 [d9a74cad] (054/231) Accurately ripped 07 [6cec341a] (053/230) Accurately ripped 08 [021eae0f] (053/230) Accurately ripped 09 [a8f61a64] (053/230) Accurately ripped 10 [ca9aea81] (053/226) Accurately ripped 11 [83c3d8da] (054/228) Accurately rippedOffsetted by -328: 01 [0e8a4c26] (007/230) Accurately ripped 02 [800d9c1b] (007/232) Accurately ripped 03 [73e694fe] (007/231) Accurately ripped 04 [7c4b0f07] (007/230) Accurately ripped 05 [c4d1e420] (007/232) Accurately ripped 06 [91d31c09] (007/231) Accurately ripped 07 [7b9258d0] (007/230) Accurately ripped 08 [ae423dcb] (007/230) Accurately ripped 09 [521b60d0] (007/230) Accurately ripped 10 [54caceab] (006/226) Accurately ripped 11 [a96b3162] (008/228) Accurately ripped

Track Peak [ CRC32 ] [W/O NULL] [ LOG ] -- 99,8 [F1A320A0] [59CA4BF4] 01 94,6 [2DFF0A89] [2FB2369B] CRC32 02 94,6 [90FBAB67] [8E9BE43C] CRC32 03 94,6 [6FD31E6E] [B15EBD68] CRC32 04 94,6 [6A0A09DB] [25E50F21] CRC32 05 94,6 [8262DBAE] [075FFAFC] CRC32 06 94,6 [337D246A] [37E7BB32] CRC32 07 94,6 [AF263DA1] [41D1E747] CRC32 08 99,8 [86A4D28B] [12AD4980] CRC32 09 94,6 [02295663] [3BBA699F] CRC32 10 92,5 [99E07A43] [754F76F5] CRC32 11 94,6 [1CA3401F] [353767BC] CRC32


Трекер:  [ 07-Окт-2012 18:30 ]

  

Скачать .torrent

Размер .torrent файла 11 KB


Размер: 260 MB
Хэш (hash) релиза: b5ad97ef445f540b68191e3e52535641595eed3f

Еще никто не оставлял запись к записи скачать торрент The Traveling Wilburys - Vol. 3 . Будь первым!

!Обратная связь