Скачать через торрент музыку Fools Garden - Home - 2008, FLAC бесплатно без регистрации torrent

Если у вас наблюдаются проблемы со скриншотами, переходом по ссылками, скачиванием торрентов - проблемы в блокировщике рекламы AdBlock. #хорошегоДня!


Статистика раздачи
Размер:  129 MB   |    Зарегистрирован:  4 года 10 месяцев   |    .torrent скачан:  29 раз   |   
Раздают:  1  
   
Загрузка...
 
Автор Сообщение

Galfimbul

avatar Galfimbul


Fools Garden / Home

Жанр: Rock
Страна-производитель диска: EU
Год издания: 2008
Аудиокодек: FLAC (*.flac)
Тип рипа: image+.cue
Битрейт аудио: lossless
Продолжительность: 18:10
Источник (релизер): Собственный диск
Наличие сканов в содержимом раздачи: нет
Треклист:
1. Karma (5:21)
2. Reason 2.0 (4:51)
3. Million Dollar Baby (3:18)
4. Home (4:37)
Exact Audio Copy V1.0 beta 3 from 29. August 2011

EAC extraction logfile from 6. October 2012, 23:01

Fools Garden / Home

Used drive : MATSHITADVD-RAM UJ-842S Adapter: 2 ID: 0

Read mode : SecureUtilize accurate stream : YesDefeat audio cache : YesMake use of C2 pointers : No

Read offset correction : 102Overread into Lead-In and Lead-Out : NoFill up missing offset samples with silence : YesDelete leading and trailing silent blocks : NoNull samples used in CRC calculations : YesUsed interface : Native Win32 interface for Win NT & 2000

Used output format : User Defined EncoderSelected bitrate : 128 kBit/sQuality : HighAdd ID3 tag : NoCommand line compressor : C:\Program Files\Exact Audio Copy\Flac\flac.exeAdditional command line options : -V -8 -T "Date=%year%" -T "Genre=%genre%" %source%

TOC of the extracted CD

Track | Start | Length | Start sector | End sector --------------------------------------------------------- 1 | 0:00.00 | 5:21.21 | 0 | 24095 2 | 5:21.21 | 4:51.30 | 24096 | 45950 3 | 10:12.51 | 3:18.17 | 45951 | 60817 4 | 13:30.68 | 4:37.22 | 60818 | 81614

Range status and errors

Selected range

Filename C:\Program Files\Exact Audio Copy\Flac\Fools Garden - Home.wav

Peak level 98.8 % Extraction speed 3.2 X Range quality 100.0 % Test CRC D83B80DE Copy CRC D83B80DE Copy OK

No errors occurred

End of status report

==== Log checksum 81E3E672D317C9EF331B2A2AC793AC34FFF5469AE4160DD599D4E7A6DF74FEF1 ====
REM DATE 2008REM DISCID 20044004REM COMMENT "ExactAudioCopy v1.0b3"PERFORMER "Fools Garden"TITLE "Home"FILE "Fools Garden - Home.flac" WAVE TRACK 01 AUDIO TITLE "Karma" PERFORMER "Fools Garden" INDEX 01 00:00:00 TRACK 02 AUDIO TITLE "Reason 2.0" PERFORMER "Fools Garden" INDEX 00 05:20:19 INDEX 01 05:21:21 TRACK 03 AUDIO TITLE "Million Dollar Baby" PERFORMER "Fools Garden" INDEX 00 10:12:00 INDEX 01 10:12:51 TRACK 04 AUDIO TITLE "Home" PERFORMER "Fools Garden" INDEX 00 13:30:45 INDEX 01 13:30:68
EP "Home" выпущен ограниченным тиражом и представляет собой раритетное издание. Никакой информации о лейбле на лиске нет. На ЕР три новых песни и новая версия песни Reason, ранее вышедшая на альбома "25 Miles..."
Peter Freudenthaler - вокал, клавиши
Voler Hinkel - гитара, вокал, клавиши
Dirk Blumlein - бас
Claus Muller - ударные


Трекер:  [ 07-Окт-2012 18:30 ]

  

Скачать .torrent

Размер .torrent файла 10 KB


Размер: 129 MB
Хэш (hash) релиза: a2e529e2d32962af057096846f59a2192ecb0c23

Еще никто не оставлял запись к записи скачать торрент Fools Garden - Home - 2008, FLAC . Будь первым!

!Обратная связь