Скачать через торрент музыку John Elefante бесплатно без регистрации torrent

Если у вас наблюдаются проблемы со скриншотами, переходом по ссылками, скачиванием торрентов - проблемы в блокировщике рекламы AdBlock. #хорошегоДня!


Статистика раздачи
Размер:  353 MB   |    Зарегистрирован:  5 лет   |    .torrent скачан:  26 раз   |   
Раздают:  1  
   
Загрузка...
 
Автор Сообщение

Galfimbul

avatar Galfimbul


John Elefante / Windows Of Heaven

Жанр: Westcoast/CCM
Страна-производитель диска: U.S.A.
Год издания: 1995
Издатель (лейбл): Word Records
Номер по каталогу: 7014236628
Страна: U.S.A.
Аудиокодек: FLAC (*.flac)
Тип рипа: image+.cue
Битрейт аудио: lossless
Продолжительность: 46:04
Источник (релизер): собственный рип
Наличие сканов в содержимом раздачи: да

Треклист:
1. Hello My Good Friend - 5:08
2. Windows Of Heaven - 5:02
3. This Is What Love Is - 4:58
4. What If Our World - 3:36
5. Hold Me In Your Arms (The Prodigal) - 3:46
6. No One's Ever Died For Me Before - 4:11
7. Take Me To The River - 4:22
8. That's Why God Made The Moon - 5:56
9. Lay Down Your Life - 4:57
10. We Will Find Our Way - 4:08
Exact Audio Copy V1.0 beta 3 from 29. August 2011

EAC extraction logfile from 4. October 2012, 23:00

John Elefante / Windows Of Heaven

Used drive : SlimtypeDVD A DS8A5SH Adapter: 0 ID: 1

Read mode : SecureUtilize accurate stream : YesDefeat audio cache : YesMake use of C2 pointers : No

Read offset correction : 6Overread into Lead-In and Lead-Out : NoFill up missing offset samples with silence : YesDelete leading and trailing silent blocks : NoNull samples used in CRC calculations : YesUsed interface : Native Win32 interface for Win NT & 2000

Used output format : User Defined EncoderSelected bitrate : 320 kBit/sQuality : HighAdd ID3 tag : NoCommand line compressor : C:\Program Files (x86)\Exact Audio Copy\Flac\flac.exeAdditional command line options : -V -8 -T "Date=%year%" -T "Genre=%genre%" %source%

TOC of the extracted CD

Track | Start | Length | Start sector | End sector --------------------------------------------------------- 1 | 0:00.00 | 5:08.20 | 0 | 23119 2 | 5:08.20 | 5:02.12 | 23120 | 45781 3 | 10:10.32 | 4:58.53 | 45782 | 68184 4 | 15:09.10 | 3:36.17 | 68185 | 84401 5 | 18:45.27 | 3:46.15 | 84402 | 101366 6 | 22:31.42 | 4:11.70 | 101367 | 120261 7 | 26:43.37 | 4:22.30 | 120262 | 139941 8 | 31:05.67 | 5:56.08 | 139942 | 166649 9 | 37:02.00 | 4:57.34 | 166650 | 188958 10 | 41:59.34 | 4:07.53 | 188959 | 207536

Range status and errors

Selected range

Filename D:\My Music\John Elefante - 1995 - Windows Of Heaven\John Elefante - Windows Of Heaven.wav

Peak level 100.0 % Extraction speed 4.3 X Range quality 100.0 % Test CRC 593F5BD9 Copy CRC 593F5BD9 Copy OK

No errors occurred

AccurateRip summary

Track 1 cannot be verified as accurate (confidence 1) [A6BBE23F], AccurateRip returned [16D8A72B] (AR v2)Track 2 cannot be verified as accurate (confidence 1) [946FBB57], AccurateRip returned [C4EC4084] (AR v2)Track 3 cannot be verified as accurate (confidence 1) [E220AAA9], AccurateRip returned [655FE5B7] (AR v2)Track 4 cannot be verified as accurate (confidence 1) [57989074], AccurateRip returned [606148FF] (AR v2)Track 5 cannot be verified as accurate (confidence 1) [FC34E147], AccurateRip returned [DA795C6F] (AR v2)Track 6 cannot be verified as accurate (confidence 1) [27F1DD9E], AccurateRip returned [02922EDB] (AR v2)Track 7 cannot be verified as accurate (confidence 1) [4CB69FDB], AccurateRip returned [BF53B644] (AR v2)Track 8 cannot be verified as accurate (confidence 1) [F6BF0926], AccurateRip returned [759EC3B3] (AR v2)Track 9 cannot be verified as accurate (confidence 1) [32469601], AccurateRip returned [326C496C] (AR v2)Track 10 cannot be verified as accurate (confidence 1) [37B3C13E], AccurateRip returned [09592E3A] (AR v2)

No tracks could be verified as accurateYou may have a different pressing from the one(s) in the database

End of status report

==== Log checksum 9295A16674CC825BB772F87B22F463FF2A9EE6BEB58ED956442CF7AE2A6E8C3D ====


Трекер:  [ 07-Окт-2012 18:30 ]

  

Скачать .torrent

Размер .torrent файла 14 KB


Размер: 353 MB
Хэш (hash) релиза: 9f1d0dadfe08356f8c9112fe3e8e44d16c168ed2

Еще никто не оставлял запись к записи скачать торрент John Elefante . Будь первым!

!Обратная связь