Скачать через торрент музыку Frank Zappa - Tinsel Town Rebellion бесплатно без регистрации torrent

Если у вас наблюдаются проблемы со скриншотами, переходом по ссылками, скачиванием торрентов - проблемы в блокировщике рекламы AdBlock. #хорошегоДня!


Статистика раздачи
Размер:  457 MB   |    Зарегистрирован:  4 года 10 месяцев   |    .torrent скачан:  30 раз   |   
Раздают:  1  
   
Загрузка...
 
Автор Сообщение

Galfimbul

avatar Galfimbul


Frank Zappa / Tinsel Town Rebellion (2012 Remaster)

Жанр: Progressive Rock, Fusion, Comedy Rock
Страна-производитель диска: US
Год издания: 2012
Издатель (лейбл): Zappa Records
Номер по каталогу: ZR 3862
Страна: US
Аудиокодек: FLAC (*.flac)
Тип рипа: tracks+.cue
Битрейт аудио: lossless
Продолжительность: 68:42
Источник (релизер): waffles.fm
Наличие сканов в содержимом раздачи: что-то есть
Треклист:
1 Fine Girl 3:29
2 Easy Meat 9:19
3 For the Young Sophisticate 2:36
4 Love of My Life 2:15
5 I Ain't Got No Heart 1:59
6 Panty Rap 4:35
7 Tell Me You Love Me 2:07
8 Now You See It-Now You Don't 5:01
9 Dance Contest 3:00
10 The Blue Light 5:26
11 Tinseltown Rebellion 4:35
12 Pick Me, I'm Clean 5:00
13 Bamboozled by Love 5:46
14 Brown Shoes Don't Make It 7:14
15 Peaches III 4:56
Exact Audio Copy V1.0 beta 3 from 29. August 2011

EAC extraction logfile from 26. September 2012, 20:17

Frank Zappa / Tinsel Town Rebellion

Used drive : HP DVD Writer 1260r Adapter: 2 ID: 0

Read mode : SecureUtilize accurate stream : YesDefeat audio cache : YesMake use of C2 pointers : No

Read offset correction : 48Overread into Lead-In and Lead-Out : NoFill up missing offset samples with silence : YesDelete leading and trailing silent blocks : NoNull samples used in CRC calculations : YesUsed interface : Native Win32 interface for Win NT & 2000Gap handling : Appended to previous track

Used output format : User Defined EncoderSelected bitrate : 768 kBit/sQuality : HighAdd ID3 tag : NoCommand line compressor : C:\Program Files (x86)\Exact Audio Copy\FLAC\FLAC.EXEAdditional command line options : -8 -V -T "ARTIST=%artist%" -T "TITLE=%title%" -T "ALBUM=%albumtitle%" -T "DATE=%year%" -T "TRACKNUMBER=%tracknr%" -T "GENRE=%genre%" -T "COMMENT=%comment%" -T "BAND=%albuminterpret%" -T "ALBUMARTIST=%albuminterpret%" -T "COMPOSER=%composer%" %haslyrics%--tag-from-file=LYRICS="%lyricsfile%"%haslyrics% -T "DISCNUMBER=%cdnumber%" -T "TOTALDISCS=%totalcds%" -T "TOTALTRACKS=%numtracks%" %hascover%--picture="%coverfile%"%hascover% %source% -o %dest%

TOC of the extracted CD

Track | Start | Length | Start sector | End sector --------------------------------------------------------- 1 | 0:00.00 | 3:31.46 | 0 | 15870 2 | 3:31.46 | 9:18.29 | 15871 | 57749 3 | 12:50.00 | 3:13.63 | 57750 | 72287 4 | 16:03.63 | 2:15.18 | 72288 | 82430 5 | 18:19.06 | 1:59.08 | 82431 | 91363 6 | 20:18.14 | 4:35.28 | 91364 | 112016 7 | 24:53.42 | 2:07.17 | 112017 | 121558 8 | 27:00.59 | 5:05.58 | 121559 | 144491 9 | 32:06.42 | 3:00.23 | 144492 | 158014 10 | 35:06.65 | 5:26.44 | 158015 | 182508 11 | 40:33.34 | 4:35.16 | 182509 | 203149 12 | 45:08.50 | 5:32.61 | 203150 | 228110 13 | 50:41.36 | 5:46.12 | 228111 | 254072 14 | 56:27.48 | 7:13.69 | 254073 | 286616 15 | 63:41.42 | 5:00.46 | 286617 | 309162

Track 1

Filename E:\torrents\Frank Zappa - Tinsel Town Rebellion - 2012 - FLAC\01 Fine Girl.wav

Pre-gap length 0:00:02.00

Peak level 100.0 % Extraction speed 2.5 X Track quality 100.0 % Test CRC AB7751B1 Copy CRC AB7751B1 Track not present in AccurateRip database Copy OK

Track 2

Filename E:\torrents\Frank Zappa - Tinsel Town Rebellion - 2012 - FLAC\02 Easy Meat.wav

Peak level 100.0 % Extraction speed 3.0 X Track quality 99.9 % Test CRC E4D4CE14 Copy CRC E4D4CE14 Track not present in AccurateRip database Copy OK

Track 3

Filename E:\torrents\Frank Zappa - Tinsel Town Rebellion - 2012 - FLAC\03 For The Young Sophisticate.wav

Peak level 100.0 % Extraction speed 2.7 X Track quality 99.9 % Test CRC A46CFAD8 Copy CRC A46CFAD8 Track not present in AccurateRip database Copy OK

Track 4

Filename E:\torrents\Frank Zappa - Tinsel Town Rebellion - 2012 - FLAC\04 Love Of My Life.wav

Peak level 100.0 % Extraction speed 3.0 X Track quality 100.0 % Test CRC 729F3A1F Copy CRC 729F3A1F Track not present in AccurateRip database Copy OK

Track 5

Filename E:\torrents\Frank Zappa - Tinsel Town Rebellion - 2012 - FLAC\05 I Ain't Got No Heart.wav

Peak level 100.0 % Extraction speed 3.0 X Track quality 100.0 % Test CRC D0D6AFCC Copy CRC D0D6AFCC Track not present in AccurateRip database Copy OK

Track 6

Filename E:\torrents\Frank Zappa - Tinsel Town Rebellion - 2012 - FLAC\06 Panty Rap.wav

Peak level 100.0 % Extraction speed 3.7 X Track quality 100.0 % Test CRC 9D25AE22 Copy CRC 9D25AE22 Track not present in AccurateRip database Copy OK

Track 7

Filename E:\torrents\Frank Zappa - Tinsel Town Rebellion - 2012 - FLAC\07 Tell Me You Love Me.wav

Peak level 100.0 % Extraction speed 3.3 X Track quality 100.0 % Test CRC A36AAD11 Copy CRC A36AAD11 Track not present in AccurateRip database Copy OK

Track 8

Filename E:\torrents\Frank Zappa - Tinsel Town Rebellion - 2012 - FLAC\08 Now You See It - Now You Don't.wav

Peak level 100.0 % Extraction speed 3.6 X Track quality 99.9 % Test CRC 89B5502B Copy CRC 89B5502B Track not present in AccurateRip database Copy OK

Track 9

Filename E:\torrents\Frank Zappa - Tinsel Town Rebellion - 2012 - FLAC\09 Dance Contest.wav

Peak level 90.6 % Extraction speed 3.9 X Track quality 100.0 % Test CRC BE6D6581 Copy CRC BE6D6581 Track not present in AccurateRip database Copy OK

Track 10

Filename E:\torrents\Frank Zappa - Tinsel Town Rebellion - 2012 - FLAC\10 The Blue Light.wav

Peak level 100.0 % Extraction speed 4.4 X Track quality 100.0 % Test CRC E8CD7D20 Copy CRC E8CD7D20 Track not present in AccurateRip database Copy OK

Track 11

Filename E:\torrents\Frank Zappa - Tinsel Town Rebellion - 2012 - FLAC\11 Tinsel Town Rebellion.wav

Peak level 100.0 % Extraction speed 4.0 X Track quality 99.9 % Test CRC C96C2435 Copy CRC C96C2435 Track not present in AccurateRip database Copy OK

Track 12

Filename E:\torrents\Frank Zappa - Tinsel Town Rebellion - 2012 - FLAC\12 Pick Me, I'm Clean.wav

Peak level 100.0 % Extraction speed 4.8 X Track quality 100.0 % Test CRC 33603CAC Copy CRC 33603CAC Track not present in AccurateRip database Copy OK

Track 13

Filename E:\torrents\Frank Zappa - Tinsel Town Rebellion - 2012 - FLAC\13 Bamboozled By Love.wav

Peak level 100.0 % Extraction speed 5.0 X Track quality 100.0 % Test CRC 3E1C0D45 Copy CRC 3E1C0D45 Track not present in AccurateRip database Copy OK

Track 14

Filename E:\torrents\Frank Zappa - Tinsel Town Rebellion - 2012 - FLAC\14 Brown Shoes Don't Make It.wav

Peak level 100.0 % Extraction speed 5.0 X Track quality 99.9 % Test CRC FCFB66FB Copy CRC FCFB66FB Track not present in AccurateRip database Copy OK

Track 15

Filename E:\torrents\Frank Zappa - Tinsel Town Rebellion - 2012 - FLAC\15 Peaches III.wav

Peak level 100.0 % Extraction speed 5.4 X Track quality 100.0 % Test CRC AE0BE6EF Copy CRC AE0BE6EF Track not present in AccurateRip database Copy OK

None of the tracks are present in the AccurateRip database

No errors occurred

End of status report

==== Log checksum 85F53CC1E5A701849DBEF33A9CE834AD9A4427A48D5EF343A3CD274FBD0AEBA7 ====
REM GENRE RockREM DATE 2012REM DISCID BA101A0FREM COMMENT ExactAudioCopy v1.0b3PERFORMER ""TITLE "Tinsel Town Rebellion"REM REPLAYGAIN_ALBUM_GAIN -5.15 dBREM REPLAYGAIN_ALBUM_PEAK 1.000000FILE "01 Fine Girl.flac" WAVE TRACK 01 AUDIO TITLE "Fine Girl" PERFORMER "Frank Zappa" REM REPLAYGAIN_TRACK_GAIN -4.45 dB REM REPLAYGAIN_TRACK_PEAK 1.000000 INDEX 01 00:00:00FILE "02 Easy Meat.flac" WAVE TRACK 02 AUDIO TITLE "Easy Meat" PERFORMER "Frank Zappa" REM REPLAYGAIN_TRACK_GAIN -5.13 dB REM REPLAYGAIN_TRACK_PEAK 1.000000 INDEX 01 00:00:00FILE "03 For The Young Sophisticate.flac" WAVE TRACK 03 AUDIO TITLE "For The Young Sophisticate" PERFORMER "Frank Zappa" REM REPLAYGAIN_TRACK_GAIN -4.11 dB REM REPLAYGAIN_TRACK_PEAK 1.000000 INDEX 01 00:00:00FILE "04 Love Of My Life.flac" WAVE TRACK 04 AUDIO TITLE "Love Of My Life" PERFORMER "Frank Zappa" REM REPLAYGAIN_TRACK_GAIN -4.81 dB REM REPLAYGAIN_TRACK_PEAK 1.000000 INDEX 01 00:00:00FILE "05 I Ain't Got No Heart.flac" WAVE TRACK 05 AUDIO TITLE "I Ain't Got No Heart" PERFORMER "Frank Zappa" REM REPLAYGAIN_TRACK_GAIN -6.93 dB REM REPLAYGAIN_TRACK_PEAK 1.000000 INDEX 01 00:00:00FILE "06 Panty Rap.flac" WAVE TRACK 06 AUDIO TITLE "Panty Rap" PERFORMER "Frank Zappa" REM REPLAYGAIN_TRACK_GAIN -1.51 dB REM REPLAYGAIN_TRACK_PEAK 1.000000 INDEX 01 00:00:00FILE "07 Tell Me You Love Me.flac" WAVE TRACK 07 AUDIO TITLE "Tell Me You Love Me" PERFORMER "Frank Zappa" REM REPLAYGAIN_TRACK_GAIN -6.82 dB REM REPLAYGAIN_TRACK_PEAK 1.000000 INDEX 01 00:00:00FILE "08 Now You See It - Now You Don't.flac" WAVE TRACK 08 AUDIO TITLE "Now You See It - Now You Don't" PERFORMER "Frank Zappa" REM REPLAYGAIN_TRACK_GAIN -4.30 dB REM REPLAYGAIN_TRACK_PEAK 0.999969 INDEX 01 00:00:00FILE "09 Dance Contest.flac" WAVE TRACK 09 AUDIO TITLE "Dance Contest" PERFORMER "Frank Zappa" REM REPLAYGAIN_TRACK_GAIN +0.38 dB REM REPLAYGAIN_TRACK_PEAK 0.906311 INDEX 01 00:00:00FILE "10 The Blue Light.flac" WAVE TRACK 10 AUDIO TITLE "The Blue Light" PERFORMER "Frank Zappa" REM REPLAYGAIN_TRACK_GAIN -5.75 dB REM REPLAYGAIN_TRACK_PEAK 1.000000 INDEX 01 00:00:00FILE "11 Tinsel Town Rebellion.flac" WAVE TRACK 11 AUDIO TITLE "Tinsel Town Rebellion" PERFORMER "Frank Zappa" REM REPLAYGAIN_TRACK_GAIN -6.17 dB REM REPLAYGAIN_TRACK_PEAK 1.000000 INDEX 01 00:00:00FILE "12 Pick Me, I'm Clean.flac" WAVE TRACK 12 AUDIO TITLE "Pick Me, I'm Clean" PERFORMER "Frank Zappa" REM REPLAYGAIN_TRACK_GAIN -6.30 dB REM REPLAYGAIN_TRACK_PEAK 1.000000 INDEX 01 00:00:00FILE "13 Bamboozled By Love.flac" WAVE TRACK 13 AUDIO TITLE "Bamboozled By Love" PERFORMER "Frank Zappa" REM REPLAYGAIN_TRACK_GAIN -6.11 dB REM REPLAYGAIN_TRACK_PEAK 1.000000 INDEX 01 00:00:00FILE "14 Brown Shoes Don't Make It.flac" WAVE TRACK 14 AUDIO TITLE "Brown Shoes Don't Make It" PERFORMER "Frank Zappa" REM REPLAYGAIN_TRACK_GAIN -4.76 dB REM REPLAYGAIN_TRACK_PEAK 1.000000 INDEX 01 00:00:00FILE "15 Peaches III.flac" WAVE TRACK 15 AUDIO TITLE "Peaches III" PERFORMER "Frank Zappa" REM REPLAYGAIN_TRACK_GAIN -4.51 dB REM REPLAYGAIN_TRACK_PEAK 1.000000 INDEX 01 00:00:00
d:\>d:\aucdtect -d/-m0 d:\zzz\*.wavauCDtect: CD records authenticity detector, version 0.8.2Copyright (c) 2004 Oleg Berngardt. All rights reserved.Copyright (c) 2004 Alexander Djourik. All rights reserved.------------------------------------------------------------Processing file: [01. Fine Girl.wav]

------------------------------------------------------------This track looks like CDDA with probability 100%

------------------------------------------------------------Processing file: [02. Easy Meat.wav]

------------------------------------------------------------This track looks like CDDA with probability 100%

------------------------------------------------------------Processing file: [03. For The Young Sophisticate.wav]

------------------------------------------------------------This track looks like CDDA with probability 100%

------------------------------------------------------------Processing file: [04. Love Of My Life.wav]

------------------------------------------------------------This track looks like CDDA with probability 100%

------------------------------------------------------------Processing file: [05. I Ain't Got No Heart.wav]

------------------------------------------------------------This track looks like CDDA with probability 100%

------------------------------------------------------------Processing file: [06. Panty Rap.wav]

------------------------------------------------------------This track looks like CDDA with probability 99%

------------------------------------------------------------Processing file: [07. Tell Me You Love Me.wav]

------------------------------------------------------------This track looks like CDDA with probability 100%

------------------------------------------------------------Processing file: [08. Now You See It - Now You Don't.wav]

------------------------------------------------------------This track looks like CDDA with probability 99%

------------------------------------------------------------Processing file: [09. Dance Contest.wav]

------------------------------------------------------------This track looks like CDDA with probability 100%

------------------------------------------------------------Processing file: [10. The Blue Light.wav]

------------------------------------------------------------This track looks like CDDA with probability 100%

------------------------------------------------------------Processing file: [11. Tinsel Town Rebellion.wav]

------------------------------------------------------------This track looks like CDDA with probability 100%

------------------------------------------------------------Processing file: [12. Pick Me, I'm Clean.wav]

------------------------------------------------------------This track looks like CDDA with probability 100%

------------------------------------------------------------Processing file: [13. Bamboozled By Love.wav]

------------------------------------------------------------This track looks like CDDA with probability 100%

------------------------------------------------------------Processing file: [14. Brown Shoes Don't Make It.wav]

------------------------------------------------------------This track looks like CDDA with probability 100%

------------------------------------------------------------Processing file: [15. Peaches III.wav]

------------------------------------------------------------This track looks like CDDA with probability 100%

------------------------------------------------------------Final Conclusion:------------------------------------------------------------These tracks looks like CDDA with probability 100%
Доп. информация:
Mastered by Doug Sax with Robert Hadley and Sangwook "Sunny" Nam at The Mastering Lab Inc., 2012


Трекер:  [ 07-Окт-2012 18:30 ]

  

Скачать .torrent

Размер .torrent файла 19 KB


Размер: 457 MB
Хэш (hash) релиза: fd9e6a5869de5083b4842abe15d1cc297a5a65df

Еще никто не оставлял запись к записи скачать торрент Frank Zappa - Tinsel Town Rebellion . Будь первым!

!Обратная связь