Скачать через торрент музыку Frank Zappa - Joes Garage Acts I, II & III бесплатно без регистрации torrent

Если у вас наблюдаются проблемы со скриншотами, переходом по ссылками, скачиванием торрентов - проблемы в блокировщике рекламы AdBlock. #хорошегоДня!


Статистика раздачи
Размер:  741 MB   |    Зарегистрирован:  4 года 10 месяцев   |    .torrent скачан:  39 раз   |   
Раздают:  1  
   
Загрузка...
 
Автор Сообщение

Galfimbul

avatar Galfimbul


Frank Zappa / Joe's Garage Acts I, II & III (2CD, 2012 Remaster)

Жанр: Progressive Rock, Fusion, Comedy Rock
Страна-производитель диска: US
Год издания: 2012
Издатель (лейбл): Zappa Records
Номер по каталогу: ZR 3861 BKO1/2
Страна: US
Аудиокодек: FLAC (*.flac)
Тип рипа: tracks+.cue
Битрейт аудио: lossless
Продолжительность: 58:29 + 56:49
Источник (релизер): waffles.fm
Наличие сканов в содержимом раздачи: да
Треклист:
1.1 The Central Scrutinizer 3:28
1.2 Joe's Garage 6:10
1.3 Catholic Girls 4:26
1.4 Crew Slut 6:31
1.5 Fembot in a Wet T-Shirt 4:45
1.6 On the Bus 4:19
1.7 Why Does It Hurt When I Pee? 2:36
1.8 Lucille Has Messed My Mind Up 5:43
1.9 Scrutinizer Postlude 1:35
1.10 A Token of My Extreme 5:30
1.11 Stick It Out 4:34
1.12 Sy Borg 8:56
2.1 Dong Work for Yuda 5:03
2.2 Keep It Greasey 8:22
2.3 Outside Now 5:50
2.4 He Used to Cut the Grass 8:35
2.5 Packard Goose 11:34
2.6 Watermelon in Easter Hay 9:09
2.7 A Little Green Rosetta 8:15
Exact Audio Copy V1.0 beta 3 from 29. August 2011

EAC extraction logfile from 26. September 2012, 13:22

Frank Zappa / Joe's Garage (Disk 1)

Used drive : HP DVD Writer 1260r Adapter: 2 ID: 0

Read mode : Secure
Utilize accurate stream : Yes
Defeat audio cache : Yes
Make use of C2 pointers : No

Read offset correction : 48
Overread into Lead-In and Lead-Out : No
Fill up missing offset samples with silence : Yes
Delete leading and trailing silent blocks : No
Null samples used in CRC calculations : Yes
Used interface : Native Win32 interface for Win NT & 2000
Gap handling : Appended to previous track

Used output format : User Defined Encoder
Selected bitrate : 768 kBit/s
Quality : High
Add ID3 tag : No
Command line compressor : C:\Program Files (x86)\Exact Audio Copy\FLAC\FLAC.EXE
Additional command line options : -6 -V -T "ARTIST=%artist%" -T "TITLE=%title%" -T "ALBUM=%albumtitle%" -T "DATE=%year%" -T "TRACKNUMBER=%tracknr%" -T "GENRE=%genre%" -T "COMMENT=%comment%" -T "BAND=%albuminterpret%" -T "ALBUMARTIST=%albuminterpret%" -T "COMPOSER=%composer%" %haslyrics%--tag-from-file=LYRICS="%lyricsfile%"%haslyrics% -T "DISCNUMBER=%cdnumber%" -T "TOTALDISCS=%totalcds%" -T "TOTALTRACKS=%numtracks%" %hascover%--picture="%coverfile%"%hascover% %source% -o %dest%

TOC of the extracted CD

Track | Start | Length | Start sector | End sector
---------------------------------------------------------
1 | 0:00.00 | 3:28.19 | 0 | 15618
2 | 3:28.19 | 6:09.02 | 15619 | 43295
3 | 9:37.21 | 4:19.00 | 43296 | 62720
4 | 13:56.21 | 6:40.29 | 62721 | 92749
5 | 20:36.50 | 4:44.23 | 92750 | 114072
6 | 25:20.73 | 4:30.72 | 114073 | 134394
7 | 29:51.70 | 2:22.58 | 134395 | 145102
8 | 32:14.53 | 5:42.06 | 145103 | 170758
9 | 37:56.59 | 1:35.38 | 170759 | 177921
10 | 39:32.22 | 5:28.72 | 177922 | 202593
11 | 45:01.19 | 4:33.26 | 202594 | 223094
12 | 49:34.45 | 8:54.70 | 223095 | 263214

Track 1

Filename E:\torrents\Frank Zappa - Joes Garage - FLAC\disc 1\01 The Central Scrutinizer.wav

Pre-gap length 0:00:02.00

Peak level 100.0 %
Extraction speed 2.5 X
Track quality 100.0 %
Test CRC ED111186
Copy CRC ED111186
Track not present in AccurateRip database
Copy OK

Track 2

Filename E:\torrents\Frank Zappa - Joes Garage - FLAC\disc 1\02 Joe's Garage.wav

Peak level 100.0 %
Extraction speed 3.0 X
Track quality 100.0 %
Test CRC 024ED50D
Copy CRC 024ED50D
Track not present in AccurateRip database
Copy OK

Track 3

Filename E:\torrents\Frank Zappa - Joes Garage - FLAC\disc 1\03 Catholic Girls.wav

Peak level 100.0 %
Extraction speed 3.2 X
Track quality 100.0 %
Test CRC 3F0F10D7
Copy CRC 3F0F10D7
Track not present in AccurateRip database
Copy OK

Track 4

Filename E:\torrents\Frank Zappa - Joes Garage - FLAC\disc 1\04 Crew Slut.wav

Peak level 100.0 %
Extraction speed 3.3 X
Track quality 99.9 %
Test CRC 14377B7D
Copy CRC 14377B7D
Track not present in AccurateRip database
Copy OK

Track 5

Filename E:\torrents\Frank Zappa - Joes Garage - FLAC\disc 1\05 Fembot In A Wet T-Shirt.wav

Peak level 100.0 %
Extraction speed 3.7 X
Track quality 100.0 %
Test CRC E5C4B316
Copy CRC E5C4B316
Track not present in AccurateRip database
Copy OK

Track 6

Filename E:\torrents\Frank Zappa - Joes Garage - FLAC\disc 1\06 On The Bus.wav

Peak level 100.0 %
Extraction speed 3.9 X
Track quality 100.0 %
Test CRC 0F87B4CB
Copy CRC 0F87B4CB
Track not present in AccurateRip database
Copy OK

Track 7

Filename E:\torrents\Frank Zappa - Joes Garage - FLAC\disc 1\07 Why Does It Hurt When I Pee.wav

Peak level 100.0 %
Extraction speed 3.0 X
Track quality 99.9 %
Test CRC D4DB98EC
Copy CRC D4DB98EC
Track not present in AccurateRip database
Copy OK

Track 8

Filename E:\torrents\Frank Zappa - Joes Garage - FLAC\disc 1\08 Lucille Has Messed My Mind Up.wav

Peak level 100.0 %
Extraction speed 4.3 X
Track quality 100.0 %
Test CRC 03FE565F
Copy CRC 03FE565F
Track not present in AccurateRip database
Copy OK

Track 9

Filename E:\torrents\Frank Zappa - Joes Garage - FLAC\disc 1\09 Scrutinizer Postlude.wav

Peak level 56.3 %
Extraction speed 3.4 X
Track quality 100.0 %
Test CRC EF9AB2A1
Copy CRC EF9AB2A1
Track not present in AccurateRip database
Copy OK

Track 10

Filename E:\torrents\Frank Zappa - Joes Garage - FLAC\disc 1\10 A Token Of My Extreme.wav

Peak level 100.0 %
Extraction speed 4.5 X
Track quality 100.0 %
Test CRC 7BCF5B67
Copy CRC 7BCF5B67
Track not present in AccurateRip database
Copy OK

Track 11

Filename E:\torrents\Frank Zappa - Joes Garage - FLAC\disc 1\11 Stick It Out.wav

Peak level 100.0 %
Extraction speed 4.6 X
Track quality 100.0 %
Test CRC 6F95D0E7
Copy CRC 6F95D0E7
Track not present in AccurateRip database
Copy OK

Track 12

Filename E:\torrents\Frank Zappa - Joes Garage - FLAC\disc 1\12 Sy Borg.wav

Peak level 100.0 %
Extraction speed 5.2 X
Track quality 100.0 %
Test CRC 3D227544
Copy CRC 3D227544
Track not present in AccurateRip database
Copy OK

None of the tracks are present in the AccurateRip database

No errors occurred

End of status report

==== Log checksum B5D67D2924E70E0B8B56B1D034CBDBAA6C7DA0DE771C7A2BCA2EB714557D0FDE ====
Exact Audio Copy V1.0 beta 3 from 29. August 2011

EAC extraction logfile from 26. September 2012, 14:22

Frank Zappa / Joe's Garage CD2

Used drive : HP DVD Writer 1260r Adapter: 2 ID: 0

Read mode : Secure
Utilize accurate stream : Yes
Defeat audio cache : Yes
Make use of C2 pointers : No

Read offset correction : 48
Overread into Lead-In and Lead-Out : No
Fill up missing offset samples with silence : Yes
Delete leading and trailing silent blocks : No
Null samples used in CRC calculations : Yes
Used interface : Native Win32 interface for Win NT & 2000
Gap handling : Appended to previous track

Used output format : User Defined Encoder
Selected bitrate : 768 kBit/s
Quality : High
Add ID3 tag : No
Command line compressor : C:\Program Files (x86)\Exact Audio Copy\FLAC\FLAC.EXE
Additional command line options : -6 -V -T "ARTIST=%artist%" -T "TITLE=%title%" -T "ALBUM=%albumtitle%" -T "DATE=%year%" -T "TRACKNUMBER=%tracknr%" -T "GENRE=%genre%" -T "COMMENT=%comment%" -T "BAND=%albuminterpret%" -T "ALBUMARTIST=%albuminterpret%" -T "COMPOSER=%composer%" %haslyrics%--tag-from-file=LYRICS="%lyricsfile%"%haslyrics% -T "DISCNUMBER=%cdnumber%" -T "TOTALDISCS=%totalcds%" -T "TOTALTRACKS=%numtracks%" %hascover%--picture="%coverfile%"%hascover% %source% -o %dest%

TOC of the extracted CD

Track | Start | Length | Start sector | End sector
---------------------------------------------------------
1 | 0:00.00 | 5:03.51 | 0 | 22775
2 | 5:03.51 | 8:20.41 | 22776 | 60316
3 | 13:24.17 | 5:52.16 | 60317 | 86732
4 | 19:16.33 | 8:34.05 | 86733 | 125287
5 | 27:50.38 | 11:34.09 | 125288 | 177346
6 | 39:24.47 | 9:07.72 | 177347 | 218443
7 | 48:32.44 | 8:16.58 | 218444 | 255701

Track 1

Filename E:\torrents\Frank Zappa - Joes Garage - FLAC\disc2\01 Act II- Dong Work For Yuda.wav

Pre-gap length 0:00:02.00

Peak level 100.0 %
Extraction speed 2.7 X
Track quality 100.0 %
Test CRC 907EA585
Copy CRC 907EA585
Track not present in AccurateRip database
Copy OK

Track 2

Filename E:\torrents\Frank Zappa - Joes Garage - FLAC\disc2\02 Act II- Keep It Greasey.wav

Peak level 100.0 %
Extraction speed 3.2 X
Track quality 100.0 %
Test CRC 4A66C4B0
Copy CRC 4A66C4B0
Track not present in AccurateRip database
Copy OK

Track 3

Filename E:\torrents\Frank Zappa - Joes Garage - FLAC\disc2\03 Act II- Outside Now.wav

Peak level 98.3 %
Extraction speed 3.5 X
Track quality 100.0 %
Test CRC 27EA529E
Copy CRC 27EA529E
Track not present in AccurateRip database
Copy OK

Track 4

Filename E:\torrents\Frank Zappa - Joes Garage - FLAC\disc2\04 Act III- He Used To Cut The Grass.wav

Peak level 94.9 %
Extraction speed 4.0 X
Track quality 100.0 %
Test CRC EFD92039
Copy CRC EFD92039
Track not present in AccurateRip database
Copy OK

Track 5

Filename E:\torrents\Frank Zappa - Joes Garage - FLAC\disc2\05 Act III- Packard Goose.wav

Peak level 100.0 %
Extraction speed 4.5 X
Track quality 100.0 %
Test CRC 2D877ADB
Copy CRC 2D877ADB
Track not present in AccurateRip database
Copy OK

Track 6

Filename E:\torrents\Frank Zappa - Joes Garage - FLAC\disc2\06 Act III- Watermelon In Easter Hay.wav

Peak level 100.0 %
Extraction speed 4.8 X
Track quality 100.0 %
Test CRC 1A071905
Copy CRC 1A071905
Track not present in AccurateRip database
Copy OK

Track 7

Filename E:\torrents\Frank Zappa - Joes Garage - FLAC\disc2\07 Act III- A Little Green Rosetta.wav

Peak level 100.0 %
Extraction speed 5.2 X
Track quality 100.0 %
Test CRC 875D2FE9
Copy CRC 875D2FE9
Track not present in AccurateRip database
Copy OK

None of the tracks are present in the AccurateRip database

No errors occurred

End of status report

==== Log checksum 310DF3AFCB1940177176B9AC92DD249A2167C283EB8480087EC08F01A78BEB04 ====
REM GENRE Rock
REM DATE 1979
REM DISCID B30DB50C
REM COMMENT ExactAudioCopy v1.0b3
PERFORMER "Frank Zappa"
TITLE "Joe's Garage (Disk 1)"
REM REPLAYGAIN_ALBUM_GAIN -3.94 dB
REM REPLAYGAIN_ALBUM_PEAK 1.000000
FILE "101 - The Central Scrutinizer.flac" WAVE
TRACK 01 AUDIO
TITLE "The Central Scrutinizer"
REM REPLAYGAIN_TRACK_GAIN -2.49 dB
REM REPLAYGAIN_TRACK_PEAK 1.000000
INDEX 01 00:00:00
FILE "102 - Joe's Garage.flac" WAVE
TRACK 02 AUDIO
TITLE "Joe's Garage"
REM REPLAYGAIN_TRACK_GAIN -5.58 dB
REM REPLAYGAIN_TRACK_PEAK 1.000000
INDEX 01 00:00:00
FILE "103 - Catholic Girls.flac" WAVE
TRACK 03 AUDIO
TITLE "Catholic Girls"
REM REPLAYGAIN_TRACK_GAIN -3.20 dB
REM REPLAYGAIN_TRACK_PEAK 1.000000
INDEX 01 00:00:00
FILE "104 - Crew Slut.flac" WAVE
TRACK 04 AUDIO
TITLE "Crew Slut"
REM REPLAYGAIN_TRACK_GAIN -4.67 dB
REM REPLAYGAIN_TRACK_PEAK 1.000000
INDEX 01 00:00:00
FILE "105 - Fembot In A Wet T-Shirt.flac" WAVE
TRACK 05 AUDIO
TITLE "Fembot In A Wet T-Shirt"
REM REPLAYGAIN_TRACK_GAIN -3.83 dB
REM REPLAYGAIN_TRACK_PEAK 1.000000
INDEX 01 00:00:00
FILE "106 - On The Bus.flac" WAVE
TRACK 06 AUDIO
TITLE "On The Bus"
REM REPLAYGAIN_TRACK_GAIN -3.55 dB
REM REPLAYGAIN_TRACK_PEAK 1.000000
INDEX 01 00:00:00
FILE "107 - Why Does It Hurt When I Pee.flac" WAVE
TRACK 07 AUDIO
TITLE "Why Does It Hurt When I Pee?"
REM REPLAYGAIN_TRACK_GAIN -5.95 dB
REM REPLAYGAIN_TRACK_PEAK 1.000000
INDEX 01 00:00:00
FILE "108 - Lucille Has Messed My Mind Up.flac" WAVE
TRACK 08 AUDIO
TITLE "Lucille Has Messed My Mind Up"
REM REPLAYGAIN_TRACK_GAIN -1.81 dB
REM REPLAYGAIN_TRACK_PEAK 1.000000
INDEX 01 00:00:00
FILE "109 - Scrutinizer Of Postlude.flac" WAVE
TRACK 09 AUDIO
TITLE "Scrutinizer Postlude"
REM REPLAYGAIN_TRACK_GAIN +6.17 dB
REM REPLAYGAIN_TRACK_PEAK 0.562988
INDEX 01 00:00:00
FILE "110 - A Token Of My Extreme.flac" WAVE
TRACK 10 AUDIO
TITLE "A Token Of My Extreme"
REM REPLAYGAIN_TRACK_GAIN -3.61 dB
REM REPLAYGAIN_TRACK_PEAK 1.000000
INDEX 01 00:00:00
FILE "111 - Stick It Out.flac" WAVE
TRACK 11 AUDIO
TITLE "Stick It Out"
REM REPLAYGAIN_TRACK_GAIN -5.80 dB
REM REPLAYGAIN_TRACK_PEAK 1.000000
INDEX 01 00:00:00
FILE "112 - Sy Borg.flac" WAVE
TRACK 12 AUDIO
TITLE "Sy Borg"
REM REPLAYGAIN_TRACK_GAIN -2.41 dB
REM REPLAYGAIN_TRACK_PEAK 1.000000
INDEX 01 00:00:00
REM GENRE Rock
REM DATE 1979
REM DISCID 580D5107
REM COMMENT ExactAudioCopy v1.0b3
PERFORMER "Frank Zappa"
TITLE "Joe's Garage CD2"
REM REPLAYGAIN_ALBUM_GAIN -4.21 dB
REM REPLAYGAIN_ALBUM_PEAK 1.000000
FILE "201 - Dong Work For Yuda.flac" WAVE
TRACK 01 AUDIO
TITLE "Dong Work For Yuda"
REM REPLAYGAIN_TRACK_GAIN -3.60 dB
REM REPLAYGAIN_TRACK_PEAK 1.000000
INDEX 01 00:00:00
FILE "202 - Keep It Greasy.flac" WAVE
TRACK 02 AUDIO
TITLE "Keep It Greasey"
REM REPLAYGAIN_TRACK_GAIN -5.59 dB
REM REPLAYGAIN_TRACK_PEAK 1.000000
INDEX 01 00:00:00
FILE "203 - Outside Now.flac" WAVE
TRACK 03 AUDIO
TITLE "Outside Now"
REM REPLAYGAIN_TRACK_GAIN -3.51 dB
REM REPLAYGAIN_TRACK_PEAK 0.983948
INDEX 01 00:00:00
FILE "204 - He Used To Cut The Grass.flac" WAVE
TRACK 04 AUDIO
TITLE "He Used To Cut The Grass"
REM REPLAYGAIN_TRACK_GAIN -3.15 dB
REM REPLAYGAIN_TRACK_PEAK 0.949890
INDEX 01 00:00:00
FILE "205 - Packard Goose.flac" WAVE
TRACK 05 AUDIO
TITLE "Packard Goose"
REM REPLAYGAIN_TRACK_GAIN -4.74 dB
REM REPLAYGAIN_TRACK_PEAK 1.000000
INDEX 01 00:00:00
FILE "206 - Watermelon In East Hay.flac" WAVE
TRACK 06 AUDIO
TITLE "Watermelon In Easter Hay"
REM REPLAYGAIN_TRACK_GAIN -3.25 dB
REM REPLAYGAIN_TRACK_PEAK 1.000000
INDEX 01 00:00:00
FILE "207 - A Little Green Rosetta.flac" WAVE
TRACK 07 AUDIO
TITLE "A Little Green Rosetta"
REM REPLAYGAIN_TRACK_GAIN -3.95 dB
REM REPLAYGAIN_TRACK_PEAK 1.000000
INDEX 01 00:00:00
Доп. информация:
Mastered by Doug Sax with Robert Hadley and Sangwook "Sunny" Nam at The Mastering Lab Inc., 2012
Vaultmeisterment & Analog Transfers by Joe Travers, March 2012, UMRK


Трекер:  [ 07-Окт-2012 18:30 ]

  

Скачать .torrent

Размер .torrent файла 17 KB


Размер: 741 MB
Хэш (hash) релиза: 3dc2e9b04898b9337c988ae45d8272f564625590

Еще никто не оставлял запись к записи скачать торрент Frank Zappa - Joes Garage Acts I, II & III . Будь первым!

!Обратная связь