Скачать через торрент музыку Frank Zappa - Shut Up N Play Yer Guitar бесплатно без регистрации torrent

Если у вас наблюдаются проблемы со скриншотами, переходом по ссылками, скачиванием торрентов - проблемы в блокировщике рекламы AdBlock. #хорошегоДня!


Статистика раздачи
Размер:  694 MB   |    Зарегистрирован:  4 года 10 месяцев   |    .torrent скачан:  22 раза   |   
Раздают:  1  
   
Загрузка...
 
Автор Сообщение

Galfimbul

avatar Galfimbul


Frank Zappa / Shut Up 'N Play Yer Guitar (2CD, 2012 Remaster)

Жанр: Progressive Rock, Fusion, Guitar Virtuoso
Страна-производитель диска: US
Год издания: 2012
Издатель (лейбл): Zappa Records
Номер по каталогу: ZR 3863-2
Страна: US
Аудиокодек: FLAC (*.flac)
Тип рипа: tracks+.cue
Битрейт аудио: lossless
Продолжительность: 53:18 + 54:10
Источник (релизер): waffles.fm
Наличие сканов в содержимом раздачи: да
Треклист:
Disc One:
1 Five-Five-Five 2:35
2 Hog Heaven 2:46
3 Shut Up 'n PLay Yer Guitar 5:35
4 While You Were Out 6:09
5 Treacherous Cretins 5:29
6 Heavy Duty Judy 4:39
7 Soup 'n Old Clothes 8:02
8 Variations on the Carlos Santana Secret Chord Progression 3:56
9 Gee, I Like Your Pants 2:32
10 Canarsie 6:06
11 Ship Ahoy 5:26

Disc Two:
1 The Deathless Horsie 6:18
2 Shut Up 'n Play Yer Guitar Some More 6:52
3 Pink Napkins 4:41
4 Beat It With Your Fist 1:39
5 Return of the Son of Shut Up 'n Play Yer Guitar 8:45
6 Pinnocchio's Furniture 2:04
7 Why Johnny Can't Read 4:40
8 Stucco Homes 8:56
9 Canard du jour 10:12
Exact Audio Copy V1.0 beta 3 from 29. August 2011

EAC extraction logfile from 26. September 2012, 17:54

Frank Zappa / Shut Up 'N Play Yer Guitar, Disc 1

Used drive : HP DVD Writer 1260r Adapter: 2 ID: 0

Read mode : Secure
Utilize accurate stream : Yes
Defeat audio cache : Yes
Make use of C2 pointers : No

Read offset correction : 48
Overread into Lead-In and Lead-Out : No
Fill up missing offset samples with silence : Yes
Delete leading and trailing silent blocks : No
Null samples used in CRC calculations : Yes
Used interface : Native Win32 interface for Win NT & 2000
Gap handling : Appended to previous track

Used output format : User Defined Encoder
Selected bitrate : 768 kBit/s
Quality : High
Add ID3 tag : No
Command line compressor : C:\Program Files (x86)\Exact Audio Copy\FLAC\FLAC.EXE
Additional command line options : -6 -V -T "ARTIST=%artist%" -T "TITLE=%title%" -T "ALBUM=%albumtitle%" -T "DATE=%year%" -T "TRACKNUMBER=%tracknr%" -T "GENRE=%genre%" -T "COMMENT=%comment%" -T "BAND=%albuminterpret%" -T "ALBUMARTIST=%albuminterpret%" -T "COMPOSER=%composer%" %haslyrics%--tag-from-file=LYRICS="%lyricsfile%"%haslyrics% -T "DISCNUMBER=%cdnumber%" -T "TOTALDISCS=%totalcds%" -T "TOTALTRACKS=%numtracks%" %hascover%--picture="%coverfile%"%hascover% %source% -o %dest%

TOC of the extracted CD

Track | Start | Length | Start sector | End sector
---------------------------------------------------------
1 | 0:00.00 | 2:36.68 | 0 | 11767
2 | 2:36.68 | 2:48.69 | 11768 | 24436
3 | 5:25.62 | 5:38.05 | 24437 | 49791
4 | 11:03.67 | 6:03.06 | 49792 | 77022
5 | 17:06.73 | 5:34.47 | 77023 | 102119
6 | 22:41.45 | 4:38.59 | 102120 | 123028
7 | 27:20.29 | 7:56.35 | 123029 | 158763
8 | 35:16.64 | 3:58.07 | 158764 | 176620
9 | 39:14.71 | 2:31.55 | 176621 | 188000
10 | 41:46.51 | 6:08.73 | 188001 | 215673
11 | 47:55.49 | 5:22.42 | 215674 | 239865

Track 1

Filename E:\torrents\Frank Zappa - Shut Up 'n Play Yer Guitar - 2012 - FLAC\101 Five-Five-Five.wav

Pre-gap length 0:00:02.00

Peak level 98.2 %
Extraction speed 2.3 X
Track quality 100.0 %
Test CRC 89B67630
Copy CRC 89B67630
Track not present in AccurateRip database
Copy OK

Track 2

Filename E:\torrents\Frank Zappa - Shut Up 'n Play Yer Guitar - 2012 - FLAC\102 Hog Heaven.wav

Peak level 100.0 %
Extraction speed 2.5 X
Track quality 100.0 %
Test CRC F079B3DE
Copy CRC F079B3DE
Track not present in AccurateRip database
Copy OK

Track 3

Filename E:\torrents\Frank Zappa - Shut Up 'n Play Yer Guitar - 2012 - FLAC\103 Shut Up 'N Play Yer Guitar Some More.wav

Peak level 97.0 %
Extraction speed 3.0 X
Track quality 100.0 %
Test CRC F83B6B50
Copy CRC F83B6B50
Track not present in AccurateRip database
Copy OK

Track 4

Filename E:\torrents\Frank Zappa - Shut Up 'n Play Yer Guitar - 2012 - FLAC\104 While You Were Out.wav

Peak level 97.6 %
Extraction speed 3.4 X
Track quality 100.0 %
Test CRC 85D84838
Copy CRC 85D84838
Track not present in AccurateRip database
Copy OK

Track 5

Filename E:\torrents\Frank Zappa - Shut Up 'n Play Yer Guitar - 2012 - FLAC\105 Treacherous Cretins.wav

Peak level 97.4 %
Extraction speed 3.3 X
Track quality 99.9 %
Test CRC 2D0041BC
Copy CRC 2D0041BC
Track not present in AccurateRip database
Copy OK

Track 6

Filename E:\torrents\Frank Zappa - Shut Up 'n Play Yer Guitar - 2012 - FLAC\106 Heavy Duty Judy.wav

Peak level 98.4 %
Extraction speed 3.8 X
Track quality 100.0 %
Test CRC C982685A
Copy CRC C982685A
Track not present in AccurateRip database
Copy OK

Track 7

Filename E:\torrents\Frank Zappa - Shut Up 'n Play Yer Guitar - 2012 - FLAC\107 Soup 'N Old Clothes.wav

Peak level 98.8 %
Extraction speed 4.3 X
Track quality 100.0 %
Test CRC 7770A72A
Copy CRC 7770A72A
Track not present in AccurateRip database
Copy OK

Track 8

Filename E:\torrents\Frank Zappa - Shut Up 'n Play Yer Guitar - 2012 - FLAC\108 Variations On The Carlos Santana Secret Chord Progression.wav

Peak level 96.6 %
Extraction speed 4.2 X
Track quality 100.0 %
Test CRC 20EE696F
Copy CRC 20EE696F
Track not present in AccurateRip database
Copy OK

Track 9

Filename E:\torrents\Frank Zappa - Shut Up 'n Play Yer Guitar - 2012 - FLAC\109 Gee, I Like Your Pants.wav

Peak level 97.9 %
Extraction speed 3.3 X
Track quality 99.9 %
Test CRC 91880DA1
Copy CRC 91880DA1
Track not present in AccurateRip database
Copy OK

Track 10

Filename E:\torrents\Frank Zappa - Shut Up 'n Play Yer Guitar - 2012 - FLAC\110 Canarsie.wav

Peak level 97.1 %
Extraction speed 4.7 X
Track quality 100.0 %
Test CRC D51EF043
Copy CRC D51EF043
Track not present in AccurateRip database
Copy OK

Track 11

Filename E:\torrents\Frank Zappa - Shut Up 'n Play Yer Guitar - 2012 - FLAC\111 Ship Ahoy.wav

Peak level 96.1 %
Extraction speed 4.9 X
Track quality 100.0 %
Test CRC 8F4EC4F1
Copy CRC 8F4EC4F1
Track not present in AccurateRip database
Copy OK

None of the tracks are present in the AccurateRip database

No errors occurred

End of status report

==== Log checksum D0814ACFBEE6A0D1B51EDAB911A4270F40F68F4001983DC2A1BA5752D00468FB ====
Exact Audio Copy V1.0 beta 3 from 29. August 2011

EAC extraction logfile from 26. September 2012, 18:28

Frank Zappa / Shut Up 'n Play Yer Guitar

Used drive : HP DVD Writer 1260r Adapter: 2 ID: 0

Read mode : Secure
Utilize accurate stream : Yes
Defeat audio cache : Yes
Make use of C2 pointers : No

Read offset correction : 48
Overread into Lead-In and Lead-Out : No
Fill up missing offset samples with silence : Yes
Delete leading and trailing silent blocks : No
Null samples used in CRC calculations : Yes
Used interface : Native Win32 interface for Win NT & 2000
Gap handling : Appended to previous track

Used output format : User Defined Encoder
Selected bitrate : 768 kBit/s
Quality : High
Add ID3 tag : No
Command line compressor : C:\Program Files (x86)\Exact Audio Copy\FLAC\FLAC.EXE
Additional command line options : -6 -V -T "ARTIST=%artist%" -T "TITLE=%title%" -T "ALBUM=%albumtitle%" -T "DATE=%year%" -T "TRACKNUMBER=%tracknr%" -T "GENRE=%genre%" -T "COMMENT=%comment%" -T "BAND=%albuminterpret%" -T "ALBUMARTIST=%albuminterpret%" -T "COMPOSER=%composer%" %haslyrics%--tag-from-file=LYRICS="%lyricsfile%"%haslyrics% -T "DISCNUMBER=%cdnumber%" -T "TOTALDISCS=%totalcds%" -T "TOTALTRACKS=%numtracks%" %hascover%--picture="%coverfile%"%hascover% %source% -o %dest%

TOC of the extracted CD

Track | Start | Length | Start sector | End sector
---------------------------------------------------------
1 | 0:00.00 | 6:21.07 | 0 | 28581
2 | 6:21.07 | 6:53.17 | 28582 | 59573
3 | 13:14.24 | 4:38.47 | 59574 | 80470
4 | 17:52.71 | 1:58.17 | 80471 | 89337
5 | 19:51.13 | 8:30.51 | 89338 | 127638
6 | 28:21.64 | 2:05.03 | 127639 | 137016
7 | 30:26.67 | 4:35.53 | 137017 | 157694
8 | 35:02.45 | 9:08.36 | 157695 | 198830
9 | 44:11.06 | 9:59.01 | 198831 | 243756

Track 1

Filename E:\torrents\Frank Zappa - Shut Up 'n Play Yer Guitar - 2012 - FLAC\201 The Deathless Horsie.wav

Pre-gap length 0:00:02.00

Peak level 99.2 %
Extraction speed 2.5 X
Track quality 99.9 %
Test CRC E4D6D9BC
Copy CRC E4D6D9BC
Track not present in AccurateRip database
Copy OK

Track 2

Filename E:\torrents\Frank Zappa - Shut Up 'n Play Yer Guitar - 2012 - FLAC\202 Shut Up 'N Play Yer Guitar.wav

Peak level 98.7 %
Extraction speed 3.2 X
Track quality 100.0 %
Test CRC 92B5F19B
Copy CRC 92B5F19B
Track not present in AccurateRip database
Copy OK

Track 3

Filename E:\torrents\Frank Zappa - Shut Up 'n Play Yer Guitar - 2012 - FLAC\203 Pink Napkins.wav

Peak level 96.7 %
Extraction speed 3.4 X
Track quality 100.0 %
Test CRC 0D6DF53B
Copy CRC 0D6DF53B
Track not present in AccurateRip database
Copy OK

Track 4

Filename E:\torrents\Frank Zappa - Shut Up 'n Play Yer Guitar - 2012 - FLAC\204 Beat It With Your Fist.wav

Peak level 98.5 %
Extraction speed 3.0 X
Track quality 100.0 %
Test CRC 9ACC11D7
Copy CRC 9ACC11D7
Track not present in AccurateRip database
Copy OK

Track 5

Filename E:\torrents\Frank Zappa - Shut Up 'n Play Yer Guitar - 2012 - FLAC\205 Return Of The Son Of Shut Up 'N Play Yer Guitar.wav

Peak level 97.2 %
Extraction speed 4.0 X
Track quality 100.0 %
Test CRC EF4D458E
Copy CRC EF4D458E
Track not present in AccurateRip database
Copy OK

Track 6

Filename E:\torrents\Frank Zappa - Shut Up 'n Play Yer Guitar - 2012 - FLAC\206 Pinnocchio's Furniture.wav

Peak level 97.7 %
Extraction speed 3.4 X
Track quality 100.0 %
Test CRC B390F1C7
Copy CRC B390F1C7
Track not present in AccurateRip database
Copy OK

Track 7

Filename E:\torrents\Frank Zappa - Shut Up 'n Play Yer Guitar - 2012 - FLAC\207 Why Johnny Can't Read.wav

Peak level 98.3 %
Extraction speed 4.1 X
Track quality 100.0 %
Test CRC C003CA2A
Copy CRC C003CA2A
Track not present in AccurateRip database
Copy OK

Track 8

Filename E:\torrents\Frank Zappa - Shut Up 'n Play Yer Guitar - 2012 - FLAC\208 Stucco Homes.wav

Peak level 97.2 %
Extraction speed 4.4 X
Track quality 99.9 %
Test CRC 9035FE3F
Copy CRC 9035FE3F
Track not present in AccurateRip database
Copy OK

Track 9

Filename E:\torrents\Frank Zappa - Shut Up 'n Play Yer Guitar - 2012 - FLAC\209 Canard Du Jour.wav

Peak level 78.1 %
Extraction speed 5.1 X
Track quality 100.0 %
Test CRC B7EC6A4D
Copy CRC B7EC6A4D
Track not present in AccurateRip database
Copy OK

None of the tracks are present in the AccurateRip database

No errors occurred

End of status report

==== Log checksum 4225764F6A08D2FFA49F40577A30A136F4E4DE0E22BEE2E42812B31EA740A84D ====
REM GENRE Rock
REM DATE 1981
REM DISCID 950C7E0B
REM COMMENT ExactAudioCopy v1.0b3
PERFORMER "Frank Zappa"
TITLE "Shut Up 'n Play Yer Guitar (disc 1)"
REM REPLAYGAIN_ALBUM_GAIN -4.28 dB
REM REPLAYGAIN_ALBUM_PEAK 1.000000
FILE "101 Five-Five-Five.flac" WAVE
TRACK 01 AUDIO
TITLE "Five-Five-Five"
REM REPLAYGAIN_TRACK_GAIN -6.26 dB
REM REPLAYGAIN_TRACK_PEAK 0.982635
INDEX 01 00:00:00
FILE "102 Hog Heaven.flac" WAVE
TRACK 02 AUDIO
TITLE "Hog Heaven"
REM REPLAYGAIN_TRACK_GAIN -3.76 dB
REM REPLAYGAIN_TRACK_PEAK 1.000000
INDEX 01 00:00:00
FILE "103 Shut Up 'N Play Yer Guitar Some More.flac" WAVE
TRACK 03 AUDIO
TITLE "Shut Up 'N Play Yer Guitar Some More"
REM REPLAYGAIN_TRACK_GAIN -5.54 dB
REM REPLAYGAIN_TRACK_PEAK 0.970398
INDEX 01 00:00:00
FILE "104 While You Were Out.flac" WAVE
TRACK 04 AUDIO
TITLE "While You Were Out"
REM REPLAYGAIN_TRACK_GAIN -1.05 dB
REM REPLAYGAIN_TRACK_PEAK 0.976959
INDEX 01 00:00:00
FILE "105 Treacherous Cretins.flac" WAVE
TRACK 05 AUDIO
TITLE "Treacherous Cretins"
REM REPLAYGAIN_TRACK_GAIN -5.46 dB
REM REPLAYGAIN_TRACK_PEAK 0.974030
INDEX 01 00:00:00
FILE "106 Heavy Duty Judy.flac" WAVE
TRACK 06 AUDIO
TITLE "Heavy Duty Judy"
REM REPLAYGAIN_TRACK_GAIN -5.52 dB
REM REPLAYGAIN_TRACK_PEAK 0.984222
INDEX 01 00:00:00
FILE "107 Soup 'N Old Clothes.flac" WAVE
TRACK 07 AUDIO
TITLE "Soup 'N Old Clothes"
REM REPLAYGAIN_TRACK_GAIN -6.14 dB
REM REPLAYGAIN_TRACK_PEAK 0.988464
INDEX 01 00:00:00
FILE "108 Variations On The Carlos Santana Secret Chord Progression.flac" WAVE
TRACK 08 AUDIO
TITLE "Variations On The Carlos Santana Secret Chord Progression"
REM REPLAYGAIN_TRACK_GAIN -5.60 dB
REM REPLAYGAIN_TRACK_PEAK 0.966949
INDEX 01 00:00:00
FILE "109 Gee, I Like Your Pants.flac" WAVE
TRACK 09 AUDIO
TITLE "Gee, I Like Your Pants"
REM REPLAYGAIN_TRACK_GAIN -5.27 dB
REM REPLAYGAIN_TRACK_PEAK 0.979126
INDEX 01 00:00:00
FILE "110 Canarsie.flac" WAVE
TRACK 10 AUDIO
TITLE "Canarsie"
REM REPLAYGAIN_TRACK_GAIN -4.56 dB
REM REPLAYGAIN_TRACK_PEAK 0.971588
INDEX 01 00:00:00
FILE "111 Ship Ahoy.flac" WAVE
TRACK 11 AUDIO
TITLE "Ship Ahoy"
REM REPLAYGAIN_TRACK_GAIN -3.37 dB
REM REPLAYGAIN_TRACK_PEAK 0.961395
INDEX 01 00:00:00
REM GENRE Progressive Rock
REM DATE 1981
REM DISCID 750CB209
REM COMMENT ExactAudioCopy v1.0b3
PERFORMER "Frank Zappa"
TITLE "Shut Up 'n Play Yer Guitar (disc 2)"
REM REPLAYGAIN_ALBUM_GAIN -4.28 dB
REM REPLAYGAIN_ALBUM_PEAK 1.000000
FILE "201 The Deathless Horsie.flac" WAVE
TRACK 01 AUDIO
TITLE "The Deathless Horsie"
REM REPLAYGAIN_TRACK_GAIN -3.70 dB
REM REPLAYGAIN_TRACK_PEAK 0.992249
INDEX 01 00:00:00
FILE "202 Shut Up 'N Play Yer Guitar.flac" WAVE
TRACK 02 AUDIO
TITLE "Shut Up 'N Play Yer Guitar"
REM REPLAYGAIN_TRACK_GAIN -5.04 dB
REM REPLAYGAIN_TRACK_PEAK 0.987793
INDEX 01 00:00:00
FILE "203 Pink Napkins.flac" WAVE
TRACK 03 AUDIO
TITLE "Pink Napkins"
REM REPLAYGAIN_TRACK_GAIN -1.20 dB
REM REPLAYGAIN_TRACK_PEAK 0.967194
INDEX 01 00:00:00
FILE "204 Beat It With Your Fist.flac" WAVE
TRACK 04 AUDIO
TITLE "Beat It With Your Fist"
REM REPLAYGAIN_TRACK_GAIN -3.23 dB
REM REPLAYGAIN_TRACK_PEAK 0.985046
INDEX 01 00:00:00
FILE "205 Return Of The Son Of Shut Up 'N Play Yer Guitar.flac" WAVE
TRACK 05 AUDIO
TITLE "Return Of The Son Of Shut Up 'N Play Yer Guitar"
REM REPLAYGAIN_TRACK_GAIN -4.72 dB
REM REPLAYGAIN_TRACK_PEAK 0.971985
INDEX 01 00:00:00
FILE "206 Pinnocchio's Furniture.flac" WAVE
TRACK 06 AUDIO
TITLE "Pinnocchio's Furniture"
REM REPLAYGAIN_TRACK_GAIN -5.37 dB
REM REPLAYGAIN_TRACK_PEAK 0.977783
INDEX 01 00:00:00
FILE "207 Why Johnny Can't Read.flac" WAVE
TRACK 07 AUDIO
TITLE "Why Johnny Can't Read"
REM REPLAYGAIN_TRACK_GAIN -4.38 dB
REM REPLAYGAIN_TRACK_PEAK 0.983521
INDEX 01 00:00:00
FILE "208 Stucco Homes.flac" WAVE
TRACK 08 AUDIO
TITLE "Stucco Homes"
REM REPLAYGAIN_TRACK_GAIN -1.44 dB
REM REPLAYGAIN_TRACK_PEAK 0.972626
INDEX 01 00:00:00
FILE "209 Canard Du Jour.flac" WAVE
TRACK 09 AUDIO
TITLE "Canard Du Jour"
REM REPLAYGAIN_TRACK_GAIN +0.61 dB
REM REPLAYGAIN_TRACK_PEAK 0.781525
INDEX 01 00:00:00
Доп. информация:
Mastered by Bob Ludwig, Gateway Mastering, 2012. Vaultmeisterment & Analog Transfers by Joe Travers, March 2012, UMRK.


Трекер:  [ 07-Окт-2012 18:30 ]

  

Скачать .torrent

Размер .torrent файла 16 KB


Размер: 694 MB
Хэш (hash) релиза: 9f50389915b643c81f41cc69c89604479bf717a2

Торренты, похожие на Frank Zappa - Shut Up N Play Yer Guitar скачать торрент

Форум Название Автор Размер S L Добавлен
Rосk | Mеtаl | Аltеrnаtivе, Рunk, Indереndеnt (losslеss) ·· (Guitar, Avangarde, Jazz, Fusion) Frank Zappa - Shut Up 'N Play Yer Guitar - 1981 (1995 remastered 3CD) - 1995, FLAC (image+.cue) lossless Galfimbul 749509410715 MB 0 0 1297859403

15:30

16-Фев-11

Еще никто не оставлял запись к записи скачать торрент Frank Zappa - Shut Up N Play Yer Guitar . Будь первым!

!Обратная связь