Скачать через торрент музыку New York Jimmy And The Jive Five - Never Gonna Leave - 1999, бесплатно без регистрации torrent

Если у вас наблюдаются проблемы со скриншотами, переходом по ссылками, скачиванием торрентов - проблемы в блокировщике рекламы AdBlock. #хорошегоДня!


Статистика раздачи
Размер:  272 MB   |    Зарегистрирован:  4 года 10 месяцев   |    .torrent скачан:  15 раз   |   
Раздают:  1  
   
Загрузка...
 
Автор Сообщение

Galfimbul

avatar Galfimbul


New York Jimmy And The Jive Five / Never Gonna Leave


Жанр: Jump Jive
Страна-производитель диска: USA
Год издания: 1999
Издатель (лейбл): HepCat Records
Номер по каталогу: 6603 5 55012 2 7
Страна: USA
Аудиокодек: FLAC (*.flac)
Тип рипа: image+.cue
Битрейт аудио: lossless
Продолжительность: 43:02
Источник (релизер): AUDELAS KINGDOM
Наличие сканов в содержимом раздачи: да
Треклист:
01. Never Gonna Leave
02. Buzz Buzz Buzz
03. Failed the Test
04. Ay Si Mambo
05. Yama, Yama, Pretty Mama
06. Kathy's Song
07. Chicken Baby Chicken
08. Good Thing
09. I'm Ready
10. I'm Standing at the Doorway to Your Heart
11. Yeah Yeah Yeah
12. For Sentimental Reasons
13. Foot Stompin'
Exact Audio Copy V1.0 beta 2 from 29. April 2011

EAC extraction logfile from 5. October 2012, 22:11

New York Jimmy And The Jive Five / Never Gonna Leave

Used drive : _NEC DVD_RW ND-3550A Adapter: 1 ID: 0

Read mode : SecureUtilize accurate stream : YesDefeat audio cache : YesMake use of C2 pointers : No

Read offset correction : 48Overread into Lead-In and Lead-Out : NoFill up missing offset samples with silence : YesDelete leading and trailing silent blocks : NoNull samples used in CRC calculations : YesUsed interface : Native Win32 interface for Win NT & 2000

Used output format : User Defined EncoderSelected bitrate : 768 kBit/sQuality : HighAdd ID3 tag : NoCommand line compressor : C:\Program Files\Exact Audio Copy\FLAC\FLAC.EXEAdditional command line options : -6 -V -T "ARTIST=%artist%" -T "TITLE=%title%" -T "ALBUM=%albumtitle%" -T "DATE=%year%" -T "TRACKNUMBER=%tracknr%" -T "GENRE=%genre%" -T "COMMENT=%comment%" -T "BAND=%albuminterpret%" -T "COMPOSER=%composer%" %haslyrics%--ta

TOC of the extracted CD

Track | Start | Length | Start sector | End sector --------------------------------------------------------- 1 | 0:00.00 | 3:40.66 | 0 | 16565 2 | 3:40.66 | 2:20.61 | 16566 | 27126 3 | 6:01.52 | 3:38.01 | 27127 | 43477 4 | 9:39.53 | 2:50.62 | 43478 | 56289 5 | 12:30.40 | 3:04.27 | 56290 | 70116 6 | 15:34.67 | 3:57.12 | 70117 | 87903 7 | 19:32.04 | 2:57.39 | 87904 | 101217 8 | 22:29.43 | 3:32.67 | 101218 | 117184 9 | 26:02.35 | 2:35.51 | 117185 | 128860 10 | 28:38.11 | 2:59.15 | 128861 | 142300 11 | 31:37.26 | 3:12.15 | 142301 | 156715 12 | 34:49.41 | 3:48.12 | 156716 | 173827 13 | 38:37.53 | 2:19.26 | 173828 | 184278

Range status and errors

Selected range

Filename D:\Muzika\New York Jimmy And The Jive Five - Never Gonna Leave (1999)\New York Jimmy And The Jive Five - Never Gonna Leave.wav

Peak level 99.9 % Extraction speed 4.5 X Range quality 100.0 % Test CRC A6AE124F Copy CRC A6AE124F Copy OK

No errors occurred

AccurateRip summary

Track 1 not present in databaseTrack 2 not present in databaseTrack 3 not present in databaseTrack 4 not present in databaseTrack 5 not present in databaseTrack 6 not present in databaseTrack 7 not present in databaseTrack 8 not present in databaseTrack 9 not present in databaseTrack 10 not present in databaseTrack 11 not present in databaseTrack 12 not present in databaseTrack 13 not present in database

None of the tracks are present in the AccurateRip database

End of status report

==== Log checksum B7DA32F57A538544C038501124ACA5B82B77B4595A3EA9FBA58E5BC7B87FB8B1 ====


Трекер:  [ 07-Окт-2012 18:30 ]

  

Скачать .torrent

Размер .torrent файла 11 KB


Размер: 272 MB
Хэш (hash) релиза: 8806718f4598005bb040b3b28217adfa71442176

Еще никто не оставлял запись к записи скачать торрент New York Jimmy And The Jive Five - Never Gonna Leave - 1999, . Будь первым!

!Обратная связь