Скачать через торрент музыку Mariska & Pahat Sudet - Kukkurukuu - 2012, FLAC бесплатно без регистрации torrent

Если у вас наблюдаются проблемы со скриншотами, переходом по ссылками, скачиванием торрентов - проблемы в блокировщике рекламы AdBlock. #хорошегоДня!


Статистика раздачи
Размер:  204 MB   |    Зарегистрирован:  4 года 10 месяцев   |    .torrent скачан:  16 раз   |   
Раздают:  1  
   
Загрузка...
 
Автор Сообщение

Galfimbul

avatar Galfimbul


Mariska & Pahat Sudet / Kukkurukuu

Жанр: punk jazz, blues pop spiritual
Страна-производитель диска: Финляндия
Год издания: 2012
Издатель (лейбл): Warner Music Finland Oy
Номер по каталогу: 5053105429721
Страна: Финляндия
Аудиокодек: FLAC (*.flac)
Тип рипа: tracks
Битрейт аудио: lossless
Продолжительность: 00:32:17
Источник (релизер): Собственный диск
Наличие сканов в содержимом раздачи: да
Треклист:
Matkalla Manalaan
Liekki
Kuolema On Kalamies
Kukkurukuu
Sinä Päivänä Kun Lähdet
Veri On Vettä Sakeampaa
Kettu Ja Korppi
La Muerte
Kalpeet
Ukon Laulu
Exact Audio Copy V1.0 beta 3 from 29. August 2011

Отчёт EAC об извлечении, выполненном 5. октября 2012, 10:09

Mariska & Pahat Sudet / Kukkuurukuu

Дисковод: Optiarc DVD RW AD-5240S Adapter: 3 ID: 1

Режим чтения : ДостоверностьИспользование точного потока : ДаОтключение кэша аудио : НетИспользование указателей C2 : Да

Комбинированное смещение чтения/записи : 0Способность читать области Lead-in и Lead-out : НетЗаполнение пропущенных сэмплов тишиной : ДаУдаление блоков с тишиной в начале и конце : НетПри вычислениях CRC использовались нулевые сэмплы : ДаИнтерфейс : Встроенный Win32-интерфейс для Win NT/2000Обработка зазоров : Не обнаружено, добавлено к предыдущему треку

Выходной формат : Пользовательский кодировщикВыбранный битрейт : 768 kBit/sКачество : ВысокийДобавление ID3-тега : НетУтилита сжатия : C:\Program Files (x86)\Exact Audio Copy\FLAC\FLAC.EXEДополнительные параметры : -6 -V -T "ARTIST=%artist%" -T "TITLE=%title%" -T "ALBUM=%albumtitle%" -T "DATE=%year%" -T "TRACKNUMBER=%tracknr%" -T "GENRE=%genre%" -T "COMMENT=%comment%" -T "BAND=%albuminterpret%" -T "ALBUMARTIST=%albuminterpret%" -T "COMPOSER=%composer%" %haslyrics%--tag-from-file=LYRICS="%lyricsfile%"%haslyrics% -T "DISCNUMBER=%cdnumber%" -T "TOTALDISCS=%totalcds%" -T "TOTALTRACKS=%numtracks%" %hascover%--picture="%coverfile%"%hascover% %source% -o %dest%

TOC извлечённого CD

Трек | Старт | Длительность | Начальный сектор | Конечный сектор --------------------------------------------------------------------- 1 | 0:00.00 | 3:16.64 | 0 | 14763 2 | 3:16.64 | 3:27.11 | 14764 | 30299 3 | 6:44.00 | 2:47.04 | 30300 | 42828 4 | 9:31.04 | 3:56.07 | 42829 | 60535 5 | 13:27.11 | 4:02.31 | 60536 | 78716 6 | 17:29.42 | 3:33.58 | 78717 | 94749 7 | 21:03.25 | 2:22.34 | 94750 | 105433 8 | 23:25.59 | 3:19.18 | 105434 | 120376 9 | 26:45.02 | 3:04.60 | 120377 | 134236 10 | 29:49.62 | 2:28.07 | 134237 | 145343

Трек 1

Имя файла Z:\Music-Torrents\Kukkurukuu\01 Mariska & Pahat Sudet - Matkalla Manalaan.wav

Пиковый уровень 97.7 % Скорость извлечения 12.2 X Качество трека 100.0 % CRC копии 92014A53 Копирование... OK

Трек 2

Имя файла Z:\Music-Torrents\Kukkurukuu\02 Mariska & Pahat Sudet - Liekki.wav

Пиковый уровень 97.5 % Скорость извлечения 15.7 X Качество трека 99.8 % CRC копии D844C7AB Копирование... OK

Трек 3

Имя файла Z:\Music-Torrents\Kukkurukuu\03 Mariska & Pahat Sudet - Kuolema on Kalamies.wav

Пиковый уровень 97.7 % Скорость извлечения 16.5 X Качество трека 100.0 % CRC копии 2EA112E1 Копирование... OK

Трек 4

Имя файла Z:\Music-Torrents\Kukkurukuu\04 Mariska & Pahat Sudet - Kukkuurukuu.wav

Пиковый уровень 97.8 % Скорость извлечения 20.2 X Качество трека 100.0 % CRC копии 2E830EB0 Копирование... OK

Трек 5

Имя файла Z:\Music-Torrents\Kukkurukuu\05 Mariska & Pahat Sudet - Sina Paivana Kun sa Lahdet.wav

Пиковый уровень 97.5 % Скорость извлечения 21.7 X Качество трека 100.0 % CRC копии 7DD56E59 Копирование... OK

Трек 6

Имя файла Z:\Music-Torrents\Kukkurukuu\06 Mariska & Pahat Sudet - Veri on Vetta Sakeampaa.wav

Пиковый уровень 97.5 % Скорость извлечения 23.0 X Качество трека 100.0 % CRC копии 741B378C Копирование... OK

Трек 7

Имя файла Z:\Music-Torrents\Kukkurukuu\07 Mariska & Pahat Sudet - Kettu ja Korppi.wav

Пиковый уровень 97.4 % Скорость извлечения 19.5 X Качество трека 99.8 % CRC копии BFB5A144 Копирование... OK

Трек 8

Имя файла Z:\Music-Torrents\Kukkurukuu\08 Mariska & Pahat Sudet - La Muerte.wav

Пиковый уровень 97.7 % Скорость извлечения 21.2 X Качество трека 100.0 % CRC копии 382A67B3 Копирование... OK

Трек 9

Имя файла Z:\Music-Torrents\Kukkurukuu\09 Mariska & Pahat Sudet - Kalpeet.wav

Пиковый уровень 97.2 % Скорость извлечения 25.5 X Качество трека 100.0 % CRC копии AADBBFBA Копирование... OK

Трек 10

Имя файла Z:\Music-Torrents\Kukkurukuu\10 Mariska & Pahat Sudet - Ukon Laulu.wav

Пиковый уровень 97.6 % Скорость извлечения 26.4 X Качество трека 100.0 % CRC копии E638C5F3 Копирование... OK

Ошибок не произошло

Конец отчёта

---- CUETools DB Plugin V2.1.3

[CTDB TOCID: c6rvmC5E_6iqYNJFd_FhQYDTpP4-] found, Submit result: c6rvmC5E_6iqYNJFd_FhQYDTpP4- has been confirmed[d1267953] (2/2) Accurately ripped
Доп. информация: В комплекте - скан обложки.
Английская википедия определяет жанр группы Mariska & Pahat Sudet (Маришка и Злые Волки?) как панк-джаз и блюзовый поп-спиричуэл. Я затрудняюсь добавить что-либо к этому.
Альбом Kukkurukuu выпущен в 2о12 году. Достигал третьего места в финском чарте.
Mariska, Jaakko Jakku, Klaus Suominen, Luis Herrero


Трекер:  [ 07-Окт-2012 18:30 ]

  

Скачать .torrent

Размер .torrent файла 17 KB


Размер: 204 MB
Хэш (hash) релиза: 3a77d1fce1960580217580fb22b149159338c896

Еще никто не оставлял запись к записи скачать торрент Mariska & Pahat Sudet - Kukkurukuu - 2012, FLAC . Будь первым!

!Обратная связь