Скачать через торрент музыку Tot Taylor Jumble Soul бесплатно без регистрации torrent

Если у вас наблюдаются проблемы со скриншотами, переходом по ссылками, скачиванием торрентов - проблемы в блокировщике рекламы AdBlock. #хорошегоДня!


Статистика раздачи
Размер:  300 MB   |    Зарегистрирован:  5 лет 1 месяц   |    .torrent скачан:  8 раз   |   
Раздают:  1  
   
Загрузка...
 
Автор Сообщение

Galfimbul

avatar Galfimbul


Tot Taylor - Jumble Soul

Жанр: Contemporary Pop/Rock
Страна: Англия
Год выхода альбома: 1986
Год выпуска диска: 1987
Формат: FLAC (image+.cue)
Битрейт аудио: lossless
Производитель диска: Япония
Продолжительность: 52:02
Источник (релизер): Собственный рип
Наличие сканов в содержимом раздачи: да

Треклист:
1. The Crimson Challenge (03:24)
2. Offbeat (02:42)
3. Living In Legoland (02:58)
4. The Chocolate Song (03:33)
5. The Man With The Gong (01:55)
6. The Three Dots (04:52)
7. Poptown (05:03)
8. Don't Spy On Me (03:44)
9. Spoil Her (02:48)
10. Hotel Lux (03:11)
11. On The Train With Tootsie (02:37)
12. Australia (04:437)
13. Richard Rodgers (02:16)
14. The Girl With Everything (03:49)
15. The Inside Story (04:34)

Доп. информация:
Лейбл: L.P.A./WAVE/SMS
Номер по каталогу: MP32-5121
Матрица: MP32-5121-A1E 11 (JVC)
Exact Audio Copy V1.0 beta 3 from 29. August 2011

Отчёт EAC об извлечении, выполненном 1. октября 2012, 23:48

Tot Taylor / Jumble Soul [MP32-5121]

Дисковод: ASUS DRW-2014S1 Adapter: 0 ID: 0

Режим чтения : Достоверность
Использование точного потока : Да
Отключение кэша аудио : Да
Использование указателей C2 : Нет

Коррекция смещения при чтении : 6
Способность читать области Lead-in и Lead-out : Нет
Заполнение пропущенных сэмплов тишиной : Да
Удаление блоков с тишиной в начале и конце : Нет
При вычислениях CRC использовались нулевые сэмплы : Да
Интерфейс : Встроенный Win32-интерфейс для Win NT/2000

Выходной формат : Пользовательский кодировщик
Выбранный битрейт : 128 kBit/s
Качество : Высокий
Добавление ID3-тега : Нет
Утилита сжатия : C:\Program Files\Exact Audio Copy\Flac\flac.exe
Дополнительные параметры : -V -8 -T "Date=%year%" -T "Genre=%genre%" %source%

TOC извлечённого CD

Трек | Старт | Длительность | Начальный сектор | Конечный сектор
---------------------------------------------------------------------
1 | 0:00.37 | 3:24.10 | 37 | 15346
2 | 3:24.47 | 2:41.65 | 15347 | 27486
3 | 6:06.37 | 2:57.55 | 27487 | 40816
4 | 9:04.17 | 3:32.38 | 40817 | 56754
5 | 12:36.55 | 1:55.10 | 56755 | 65389
6 | 14:31.65 | 4:52.37 | 65390 | 87326
7 | 19:24.27 | 5:03.10 | 87327 | 110061
8 | 24:27.37 | 3:44.10 | 110062 | 126871
9 | 28:11.47 | 2:47.58 | 126872 | 139454
10 | 30:59.30 | 3:10.57 | 139455 | 153761
11 | 34:10.12 | 2:36.70 | 153762 | 165531
12 | 36:47.07 | 4:36.53 | 165532 | 186284
13 | 41:23.60 | 2:16.17 | 186285 | 196501
14 | 43:40.02 | 3:48.45 | 196502 | 213646
15 | 47:28.47 | 4:34.18 | 213647 | 234214

Характеристики диапазона извлечения и сообщения об ошибках

Выбранный диапазон

Имя файла Y:\Музыка\Tot Taylor\1986 Jumble Soul\Tot Taylor - Jumble Soul [MP32-5121].wav

Пиковый уровень 100.0 %
Скорость извлечения 2.4 X
Качество диапазона 100.0 %
CRC теста BFEA7A5B
CRC копии BFEA7A5B
Копирование... OK

Ошибок не произошло

AccurateRip: сводка

Трек 1 : извлечено точно (доверие 1) [62F7AFB9] (AR v1)
Трек 2 : извлечено точно (доверие 1) [122E92EC] (AR v1)
Трек 3 : извлечено точно (доверие 1) [55D0FF30] (AR v1)
Трек 4 : извлечено точно (доверие 1) [056384AD] (AR v1)
Трек 5 : извлечено точно (доверие 1) [B79AAEA7] (AR v1)
Трек 6 : извлечено точно (доверие 1) [F23034A4] (AR v1)
Трек 7 : извлечено точно (доверие 1) [5885707F] (AR v1)
Трек 8 : извлечено точно (доверие 1) [A94A8174] (AR v1)
Трек 9 : извлечено точно (доверие 1) [CC552674] (AR v1)
Трек 10 : извлечено точно (доверие 1) [5061F696] (AR v1)
Трек 11 : извлечено точно (доверие 1) [5C060E8F] (AR v1)
Трек 12 : извлечено точно (доверие 1) [0588C9E2] (AR v1)
Трек 13 : извлечено точно (доверие 1) [C1D517E8] (AR v1)
Трек 14 : извлечено точно (доверие 1) [78754845] (AR v1)
Трек 15 : извлечено точно (доверие 1) [61CC9A5C] (AR v1)

Все треки извлечены точно

Конец отчёта

==== Контрольная сумма отчёта 00689D5C11251E5D6484A4C827A4C1A9EB86E6503EA99B5BFD2BFB643EF396C1 ====
REM GENRE RockREM DATE 1986REM DISCID D90C320FREM COMMENT "ExactAudioCopy v1.0b3"PERFORMER "Tot Taylor"TITLE "Jumble Soul [MP32-5121]"FILE "Tot Taylor - Jumble Soul [MP32-5121].flac" WAVE TRACK 01 AUDIO TITLE "The Crimson Challenge" PERFORMER "Tot Taylor" INDEX 00 00:00:00 INDEX 01 00:00:37 TRACK 02 AUDIO TITLE "Offbeat" PERFORMER "Tot Taylor" INDEX 01 03:24:47 TRACK 03 AUDIO TITLE "Living In Legoland" PERFORMER "Tot Taylor" INDEX 01 06:06:37 TRACK 04 AUDIO TITLE "The Chocolate Song" PERFORMER "Tot Taylor" INDEX 01 09:04:17 TRACK 05 AUDIO TITLE "The Man With The Gong" PERFORMER "Tot Taylor" INDEX 00 12:34:74 INDEX 01 12:36:55 TRACK 06 AUDIO TITLE "The Three Dots" PERFORMER "Tot Taylor" INDEX 00 14:31:64 INDEX 01 14:31:65 TRACK 07 AUDIO TITLE "Poptown" PERFORMER "Tot Taylor" INDEX 01 19:24:27 TRACK 08 AUDIO TITLE "Don't Spy On Me" PERFORMER "Tot Taylor" INDEX 00 24:26:59 INDEX 01 24:27:37 TRACK 09 AUDIO TITLE "Spoil Her" PERFORMER "Tot Taylor" INDEX 01 28:11:47 TRACK 10 AUDIO TITLE "Hotel Lux" PERFORMER "Tot Taylor" INDEX 00 30:59:29 INDEX 01 30:59:30 TRACK 11 AUDIO TITLE "On The Train With Tootsie" PERFORMER "Tot Taylor" INDEX 01 34:10:12 TRACK 12 AUDIO TITLE "Australia" PERFORMER "Tot Taylor" INDEX 01 36:47:07 TRACK 13 AUDIO TITLE "Richard Rodgers" PERFORMER "Tot Taylor" INDEX 00 41:23:59 INDEX 01 41:23:60 TRACK 14 AUDIO TITLE "The Girl With Everything" PERFORMER "Tot Taylor" INDEX 01 43:40:02 TRACK 15 AUDIO TITLE "The Inside Story" PERFORMER "Tot Taylor" INDEX 01 47:28:47
Состав:
-

Трекер:  [ 07-Окт-2012 18:30 ]

  

Скачать .torrent

Размер .torrent файла 12 KB


Размер: 300 MB
Хэш (hash) релиза: 0518c311936ee4ae2e75f6fb106e6eea0ea75ea6

Еще никто не оставлял запись к записи скачать торрент Tot Taylor Jumble Soul . Будь первым!

!Обратная связь