Скачать через торрент музыку Bryan Ferry - The Bride Stripped Bare бесплатно без регистрации torrent

Если у вас наблюдаются проблемы со скриншотами, переходом по ссылками, скачиванием торрентов - проблемы в блокировщике рекламы AdBlock. #хорошегоДня!


Статистика раздачи
Размер:  222 MB   |    Зарегистрирован:  4 года 10 месяцев   |    .torrent скачан:  24 раза   |   
Раздают:  1  
   
Загрузка...
 
Автор Сообщение

_N_

avatar _N_


Bryan Ferry / The Bride Stripped Bare (издание 1985)

Жанр: rock/art-rock
Год издания: 1978
Издатель (лейбл): EG Records
Номер по каталогу: 821 127-2
Аудиокодек: FLAC (*.flac)
Тип рипа: tracks+.cue
Битрейт аудио: lossless
Продолжительность: 42:00
Источник (релизер): what.cd (RockRabbit)
Наличие сканов в содержимом раздачи: нет
Треклист:
01 Sign of the Times (Ferry) – 2:28
02 Can't Let Go (Ferry) – 5:14
03 Hold On (I'm Coming) (Isaac Hayes, David Porter) – 3:37
04 Same Old Blues (J.J. Cale) – 3:21
05 When She Walks in the Room (Ferry) – 6:28
06 Take Me to the River (Al Green, Mabon "Teenie" Hodges) – 4:29
07 What Goes On (Lou Reed) – 4:11
08 Carrickfergus (traditional, arranged Ferry) – 3:46
09 That's How Strong My Love Is (Roosevelt Jamison) – 3:17
10 This Island Earth (Ferry) – 5:06
Exact Audio Copy V1.0 beta 1 from 15. November 2010

EAC extraction logfile from 16. April 2011, 16:17

Bryan Ferry / The Bride Stripped Bare

Used drive : HL-DT-STCDRW/DVD GCC4482 Adapter: 0 ID: 0

Read mode : SecureUtilize accurate stream : YesDefeat audio cache : YesMake use of C2 pointers : No

Read offset correction : 6Overread into Lead-In and Lead-Out : NoFill up missing offset samples with silence : YesDelete leading and trailing silent blocks : NoNull samples used in CRC calculations : YesUsed interface : Native Win32 interface for Win NT & 2000Gap handling : Appended to previous track

Used output format : User Defined EncoderSelected bitrate : 320 kBit/sQuality : HighAdd ID3 tag : NoCommand line compressor : C:\Program Files\Exact Audio Copy\Flac\flac.exeAdditional command line options : -V -8 -T "artist=%a" -T "title=%t" -T "album=%g" -T "date=%y" -T "tracknumber=%n" -T "genre=%m" %s

TOC of the extracted CD

Track | Start | Length | Start sector | End sector --------------------------------------------------------- 1 | 0:00.32 | 2:31.50 | 32 | 11406 2 | 2:32.07 | 5:15.63 | 11407 | 35094 3 | 7:47.70 | 3:44.50 | 35095 | 51944 4 | 11:32.45 | 3:23.62 | 51945 | 67231 5 | 14:56.32 | 6:20.38 | 67232 | 95769 6 | 21:16.70 | 4:30.32 | 95770 | 116051 7 | 25:47.27 | 4:13.00 | 116052 | 135026 8 | 30:00.27 | 3:47.55 | 135027 | 152106 9 | 33:48.07 | 3:17.25 | 152107 | 166906 10 | 37:05.32 | 4:55.00 | 166907 | 189031

Track 1

Filename D:\Torrents\Rips\Bryan Ferry - 1978 - The Bride Stripped Bare [FLAC]\01 - Sign of the Times.wav

Pre-gap length 0:00:02.42

Peak level 94.9 % Extraction speed 3.3 X Track quality 100.0 % Test CRC CF9CD549 Copy CRC CF9CD549 Accurately ripped (confidence 9) [C30161AB] Copy OK

Track 2

Filename D:\Torrents\Rips\Bryan Ferry - 1978 - The Bride Stripped Bare [FLAC]\02 - Can't Let Go.wav

Pre-gap length 0:00:02.00

Peak level 100.0 % Extraction speed 4.2 X Track quality 100.0 % Test CRC 8AE1242A Copy CRC 8AE1242A Accurately ripped (confidence 9) [DE7D416D] Copy OK

Track 3

Filename D:\Torrents\Rips\Bryan Ferry - 1978 - The Bride Stripped Bare [FLAC]\03 - Hold On (I'm Coming).wav

Pre-gap length 0:00:02.00

Peak level 85.1 % Extraction speed 4.4 X Track quality 100.0 % Test CRC 69D823CE Copy CRC 69D823CE Accurately ripped (confidence 9) [DC941311] Copy OK

Track 4

Filename D:\Torrents\Rips\Bryan Ferry - 1978 - The Bride Stripped Bare [FLAC]\04 - The Same Old Blues.wav

Pre-gap length 0:00:02.00

Peak level 65.2 % Extraction speed 4.6 X Track quality 100.0 % Test CRC 6E4652D6 Copy CRC 6E4652D6 Accurately ripped (confidence 9) [C31410EC] Copy OK

Track 5

Filename D:\Torrents\Rips\Bryan Ferry - 1978 - The Bride Stripped Bare [FLAC]\05 - When She Walks In The Room.wav

Pre-gap length 0:00:02.00

Peak level 68.2 % Extraction speed 5.4 X Track quality 100.0 % Test CRC 8D80788A Copy CRC 8D80788A Accurately ripped (confidence 8) [2BD48098] Copy OK

Track 6

Filename D:\Torrents\Rips\Bryan Ferry - 1978 - The Bride Stripped Bare [FLAC]\06 - Take Me to the River.wav

Pre-gap length 0:00:02.00

Peak level 91.9 % Extraction speed 5.6 X Track quality 100.0 % Test CRC 198D8B19 Copy CRC 198D8B19 Accurately ripped (confidence 8) [CD6C76CB] Copy OK

Track 7

Filename D:\Torrents\Rips\Bryan Ferry - 1978 - The Bride Stripped Bare [FLAC]\07 - What Goes On.wav

Pre-gap length 0:00:02.00

Peak level 81.1 % Extraction speed 5.1 X Track quality 99.9 % Test CRC 0668E3D6 Copy CRC 0668E3D6 Accurately ripped (confidence 9) [D20A33D8] Copy OK

Track 8

Filename D:\Torrents\Rips\Bryan Ferry - 1978 - The Bride Stripped Bare [FLAC]\08 - Carrickfergus.wav

Pre-gap length 0:00:02.00

Peak level 57.1 % Extraction speed 6.0 X Track quality 100.0 % Test CRC 14FBFB9A Copy CRC 14FBFB9A Accurately ripped (confidence 9) [215EAF57] Copy OK

Track 9

Filename D:\Torrents\Rips\Bryan Ferry - 1978 - The Bride Stripped Bare [FLAC]\09 - That's How Strong My Love Is.wav

Pre-gap length 0:00:02.00

Peak level 77.9 % Extraction speed 6.0 X Track quality 100.0 % Test CRC 02AE6028 Copy CRC 02AE6028 Accurately ripped (confidence 9) [B72E3743] Copy OK

Track 10

Filename D:\Torrents\Rips\Bryan Ferry - 1978 - The Bride Stripped Bare [FLAC]\10 - This Island Earth.wav

Peak level 51.4 % Extraction speed 6.6 X Track quality 100.0 % Test CRC E7971AC4 Copy CRC E7971AC4 Accurately ripped (confidence 9) [A1D67DF3] Copy OK

All tracks accurately ripped

No errors occurred

End of status report
REM GENRE RockREM DATE 1978REM DISCID 8D09D80AREM COMMENT "ExactAudioCopy v1.0b1"FILE "Bryan Ferry - 1978 - The Bride Stripped Bare [FLAC]\01 - Sign of the Times.wav" WAVE TRACK 01 AUDIO PREGAP 00:00:32 INDEX 01 00:00:00 TRACK 02 AUDIO INDEX 00 02:29:50FILE "Bryan Ferry - 1978 - The Bride Stripped Bare [FLAC]\02 - Can't Let Go.wav" WAVE INDEX 01 00:00:00 TRACK 03 AUDIO INDEX 00 05:13:63FILE "Bryan Ferry - 1978 - The Bride Stripped Bare [FLAC]\03 - Hold On (I'm Coming).wav" WAVE INDEX 01 00:00:00 TRACK 04 AUDIO INDEX 00 03:42:50FILE "Bryan Ferry - 1978 - The Bride Stripped Bare [FLAC]\04 - The Same Old Blues.wav" WAVE INDEX 01 00:00:00 TRACK 05 AUDIO INDEX 00 03:21:62FILE "Bryan Ferry - 1978 - The Bride Stripped Bare [FLAC]\05 - When She Walks In The Room.wav" WAVE INDEX 01 00:00:00 TRACK 06 AUDIO INDEX 00 06:18:38FILE "Bryan Ferry - 1978 - The Bride Stripped Bare [FLAC]\06 - Take Me to the River.wav" WAVE INDEX 01 00:00:00 TRACK 07 AUDIO INDEX 00 04:28:32FILE "Bryan Ferry - 1978 - The Bride Stripped Bare [FLAC]\07 - What Goes On.wav" WAVE INDEX 01 00:00:00 TRACK 08 AUDIO INDEX 00 04:11:00FILE "Bryan Ferry - 1978 - The Bride Stripped Bare [FLAC]\08 - Carrickfergus.wav" WAVE INDEX 01 00:00:00 TRACK 09 AUDIO INDEX 00 03:45:55FILE "Bryan Ferry - 1978 - The Bride Stripped Bare [FLAC]\09 - That's How Strong My Love Is.wav" WAVE INDEX 01 00:00:00FILE "Bryan Ferry - 1978 - The Bride Stripped Bare [FLAC]\10 - This Island Earth.wav" WAVE TRACK 10 AUDIO INDEX 01 00:00:00


Трекер:  [ 06-Окт-2012 11:16 ]

  

Скачать .torrent

Размер .torrent файла 18 KB


Размер: 222 MB
Хэш (hash) релиза: 2150a14cc98f78ef67b52708bc464cc5b8f95fb7

Торренты, похожие на Bryan Ferry - The Bride Stripped Bare скачать торрент

Форум Название Автор Размер S L Добавлен
Rосk | Mеtаl | Аltеrnаtivе, Рunk, Indереndеnt (losslеss) ·· (Classic Rock & Hard Rock) Bryan Ferry - The Bride Stripped Bare (HDCD, Japan) - 1978, FLAC (tracks+.cue), lossless Galfimbul 381044674363 MB 0 0 1297875924

20:05

16-Фев-11

Еще никто не оставлял запись к записи скачать торрент Bryan Ferry - The Bride Stripped Bare . Будь первым!

!Обратная связь