Скачать через торрент музыку David Lee Roth ‎ - A Lil Aint Enough бесплатно без регистрации torrent

Если у вас наблюдаются проблемы со скриншотами, переходом по ссылками, скачиванием торрентов - проблемы в блокировщике рекламы AdBlock. #хорошегоДня!


Статистика раздачи
Размер:  116 MB   |    Зарегистрирован:  4 года 10 месяцев   |    .torrent скачан:  10 раз   |   
Раздают:  1  
   
Загрузка...
 
Автор Сообщение

_N_

avatar _N_


David Lee Roth ‎ / A Lil' Ain't Enough [Maxi-Single]

Жанр: Hard Rock
Страна-производитель диска: Germany
Год издания: 1990
Издатель (лейбл): Warner Bros. Records
Номер по каталогу: 7599-21842-2/ W 0002CD
Аудиокодек: FLAC (*.flac)
Тип рипа: image+.cue
Битрейт аудио: lossless
Продолжительность: 00:13:20
Источник (релизер): Личный СД
Наличие сканов в содержимом раздачи: да
Треклист:
1. A Lil' Ain't Enough (LP Version)
2. Baby's On Fire (LP Version)
3. Tell The Truth (Blues Remix)
Exact Audio Copy V1.0 beta 3 from 29. August 2011

Отчёт EAC об извлечении, выполненном 5. октября 2012, 21:50

David Lee Roth / A Lil' Ain't Enough

Дисковод: PIONEER BD-RW BDR-207D Adapter: 2 ID: 1

Режим чтения : ДостоверностьИспользование точного потока : ДаОтключение кэша аудио : ДаИспользование указателей C2 : Нет

Коррекция смещения при чтении : 667Способность читать области Lead-in и Lead-out : НетЗаполнение пропущенных сэмплов тишиной : ДаУдаление блоков с тишиной в начале и конце : НетПри вычислениях CRC использовались нулевые сэмплы : ДаИнтерфейс : Встроенный Win32-интерфейс для Win NT/2000

Выходной формат : Пользовательский кодировщикВыбранный битрейт : 1024 kBit/sКачество : ВысокийДобавление ID3-тега : НетУтилита сжатия : C:\Program Files\Exact Audio Copy\Flac\flac.exeДополнительные параметры : -V -8 -T "Date=%year%" -T "Genre=%genre%" %source%

TOC извлечённого CD

Трек | Старт | Длительность | Начальный сектор | Конечный сектор --------------------------------------------------------------------- 1 | 0:00.00 | 4:44.70 | 0 | 21369 2 | 4:44.70 | 3:24.35 | 21370 | 36704 3 | 8:09.30 | 5:11.27 | 36705 | 60056

Характеристики диапазона извлечения и сообщения об ошибках

Выбранный диапазон

Имя файла M:\Раздачи Rodexx\David Lee Roth ‎– A Lil' Ain't Enough\David Lee Roth - A Lil' Ain't Enough.wav

Пиковый уровень 100.0 % Скорость извлечения 1.3 X Качество диапазона 100.0 % CRC теста 0CDF2792 CRC копии 0CDF2792 Копирование... OK

Ошибок не произошло

AccurateRip: сводка

Трек 1 : извлечено точно (доверие 1) [F2F64FBA] (AR v1)Трек 2 : извлечено точно (доверие 1) [7E6F408C] (AR v1)Трек 3 : извлечено точно (доверие 1) [FA992687] (AR v1)

Все треки извлечены точно

Конец отчёта

==== Контрольная сумма отчёта 189EE0E03F632174C8193E834F27B8FA044A47BD92CB7A6B3EAEDCBD623FB8F7 ====


Трекер:  [ 06-Окт-2012 11:17 ]

  

Скачать .torrent

Размер .torrent файла 19 KB


Размер: 116 MB
Хэш (hash) релиза: 670b2d212612f8f78a291eb6dd4ba285233c3024

Еще никто не оставлял запись к записи скачать торрент David Lee Roth ‎ - A Lil Aint Enough . Будь первым!

!Обратная связь