Скачать через торрент музыку Five Fifteen - Six Dimensions Of The Electric CamembertDeath of a Clown - 2000, 2001, бесплатно без регистрации torrent

Если у вас наблюдаются проблемы со скриншотами, переходом по ссылками, скачиванием торрентов - проблемы в блокировщике рекламы AdBlock. #хорошегоДня!


Статистика раздачи
Размер:  933 MB   |    Зарегистрирован:  4 года 10 месяцев   |    .torrent скачан:  6 раз   |   
Раздают:  1  
   
Загрузка...
 
Автор Сообщение

_N_

avatar _N_


Five Fifteen - Six Dimensions Of The Electric Camembert/Death of a Clown

Жанр: Classic Rock/Blues Rock/Progressive Hard Rock
Страна-производитель диска: Sweden
Год издания: 2000, 2001
Издатель (лейбл): Record Heaven
Номер по каталогу: RHCD 38, 49
Страна: Finland
Аудиокодек: APE (*.ape)
Тип рипа: image+.cue
Битрейт аудио: lossless
Продолжительность: 1:13:30, 55:09
Источник (релизер): original CD
Наличие сканов в содержимом раздачи: да

Треклист:

2000 Six Dimensions Of The Electric Camembert

01. I Don´t Remember [0:05:56.26]
02. Dancing With Mrs Fischer [0:03:47.71]
03. White Lines Of The Freeway [0:05:45.21]
04. Another Grasshopper´s Holiday [0:05:02.61]
05. Games Of May [0:04:23.72]
06. Six Dimensions Of The Electric Camembert [0:05:32.36]
07. Sleepwalking Nightmares [0:03:02.25]
08. The Wink Of An Eye [0:06:32.51]
09. Once I Had A Name For This One [0:06:57.16]
10. Innocence Is No Excuse [0:06:22.47]
11. Silver Machine [0:05:28.50]
12. Springtime Of Your Life (Live) [0:14:37.64]

2001 - Death of a Clown

01. The Prostitute [0:05:24.47]
02. Stone Cold Heartbreaker [0:04:49.25]
03. My Oh My [0:04:30.50]
04. Lick Your Fingers Clean [0:05:10.58]
05. She Kicked Your Present off The Bed [0:04:39.47]
06. Season of The Witch [0:03:55.43]
07. Sometimes It Helps [0:05:04.55]
08. Child Clown [0:07:05.20]
09. Sweet Little Dreamer [0:05:10.32]
10. From London With Love [0:05:05.23]
11. Death of a Clown [0:04:12.65]
Exact Audio Copy V1.0 beta 1 from 15. November 2010

Отчёт EAC об извлечении, выполненном 2. октября 2012, 15:35

Five Fifteen / Six Dimensions Of The Electric Camembert

Дисковод: Optiarc DVD RW AD-7261S Adapter: 1 ID: 1

Режим чтения : ДостоверностьИспользование точного потока : ДаОтключение кэша аудио : ДаИспользование указателей C2 : Нет

Коррекция смещения при чтении : 48Способность читать области Lead-in и Lead-out : НетЗаполнение пропущенных сэмплов тишиной : ДаУдаление блоков с тишиной в начале и конце : НетПри вычислениях CRC использовались нулевые сэмплы : ДаИнтерфейс : Встроенный Win32-интерфейс для Win NT/2000

Выходной формат : Monkey's Audio (без потерь)Выбранный битрейт : Normal Lossless CompressionКачество : ВысокийДобавление ID3-тега : ДаУтилита сжатия : C:\Program Files\Monkey's Audio\MAC.exe

TOC извлечённого CD

Трек | Старт | Длительность | Начальный сектор | Конечный сектор --------------------------------------------------------------------- 1 | 0:00.00 | 5:56.26 | 0 | 26725 2 | 5:56.26 | 3:47.71 | 26726 | 43821 3 | 9:44.22 | 5:45.21 | 43822 | 69717 4 | 15:29.43 | 5:02.61 | 69718 | 92428 5 | 20:32.29 | 4:23.72 | 92429 | 112225 6 | 24:56.26 | 5:32.36 | 112226 | 137161 7 | 30:28.62 | 3:02.25 | 137162 | 150836 8 | 33:31.12 | 6:32.51 | 150837 | 180287 9 | 40:03.63 | 6:57.16 | 180288 | 211578 10 | 47:01.04 | 6:22.47 | 211579 | 240275 11 | 53:23.51 | 5:28.50 | 240276 | 264925 12 | 58:52.26 | 14:37.64 | 264926 | 330764

Характеристики диапазона извлечения и сообщения об ошибках

Выбранный диапазон

Имя файла D:\Downloads\Five Fifteen - Six Dimensions Of The Electric Camembert.wav

Пиковый уровень 100.0 % Скорость извлечения 0.9 X Качество диапазона 100.0 % CRC теста 56361439 CRC копии 56361439 Копирование... OK

Ошибок не произошло

Конец отчёта
Exact Audio Copy V1.0 beta 1 from 15. November 2010

Отчёт EAC об извлечении, выполненном 2. октября 2012, 16:08

Five Fifteen / Death of a Clown

Дисковод: Optiarc DVD RW AD-7261S Adapter: 1 ID: 1

Режим чтения : ДостоверностьИспользование точного потока : ДаОтключение кэша аудио : ДаИспользование указателей C2 : Нет

Коррекция смещения при чтении : 48Способность читать области Lead-in и Lead-out : НетЗаполнение пропущенных сэмплов тишиной : ДаУдаление блоков с тишиной в начале и конце : НетПри вычислениях CRC использовались нулевые сэмплы : ДаИнтерфейс : Встроенный Win32-интерфейс для Win NT/2000

Выходной формат : Monkey's Audio (без потерь)Выбранный битрейт : Normal Lossless CompressionКачество : ВысокийДобавление ID3-тега : ДаУтилита сжатия : C:\Program Files\Monkey's Audio\MAC.exe

TOC извлечённого CD

Трек | Старт | Длительность | Начальный сектор | Конечный сектор --------------------------------------------------------------------- 1 | 0:00.00 | 5:24.47 | 0 | 24346 2 | 5:24.47 | 4:49.25 | 24347 | 46046 3 | 10:13.72 | 4:30.50 | 46047 | 66346 4 | 14:44.47 | 5:10.58 | 66347 | 89654 5 | 19:55.30 | 4:39.47 | 89655 | 110626 6 | 24:35.02 | 3:55.43 | 110627 | 128294 7 | 28:30.45 | 5:04.55 | 128295 | 151149 8 | 33:35.25 | 7:05.20 | 151150 | 183044 9 | 40:40.45 | 5:10.32 | 183045 | 206326 10 | 45:51.02 | 5:05.23 | 206327 | 229224 11 | 50:56.25 | 4:12.65 | 229225 | 248189

Характеристики диапазона извлечения и сообщения об ошибках

Выбранный диапазон

Имя файла D:\Downloads\Five Fifteen - Death of a Clown.wav

Пиковый уровень 98.8 % Скорость извлечения 0.3 X Качество диапазона 100.0 % CRC теста F4D2BAB8 CRC копии F4D2BAB8 Копирование... OK

Ошибок не произошло

Конец отчёта
SIX DIMENSIONS OF THE ELECTRIC CAMEMBERT:

Mika JÄRVINEN (vocals, guitar), Marika LIUSKI (vocals), Pekka LAINE (guitar), Repe LUMIKUMPU (bass), Pate KIVINEN (keyboards), Janne SUNI (drums)

Mika PESONEN (saxophone on 3.), Matti LAPPALAINEN (trombone on 3.), Mikko KOPONEN (trumpet on 3.)

DEATH OF A CLOWN:

Mika JÄRVINEN (vocals, guitar), Hanna WENDELIN (vocals), Esa MARK (guitar), Repe LUMIKUMPU (bass), Pate KIVINEN (keyboards), Atte SARKIMA (drums, backing vocals)

Marika LIUSKI (vocals), Pekka LAINE (guitar), Johannes LEPPÄLÄ (violin on 1. and 3.), Viveka KUUSELA (violin on 1. and 3.), Ilkka PAKKALA (cello on 1. and 3.), Martti SIVONEN (backing vocals on 1.,4. and 10.), Ville VALO (backing vocals on 1.,6. and 9.), Mika SUNDSTRÖM (backing vocals on 4.)


Трекер:  [ 06-Окт-2012 11:17 ]

  

Скачать .torrent

Размер .torrent файла 22 KB


Размер: 933 MB
Хэш (hash) релиза: 7b0e8ae74e051f9538d1f9e9d5e45748d501a95b

Еще никто не оставлял запись к записи скачать торрент Five Fifteen - Six Dimensions Of The Electric CamembertDeath of a Clown - 2000, 2001, . Будь первым!

!Обратная связь