Скачать через торрент музыку Red & The Red Hots - Gettin Around - 1999, бесплатно без регистрации torrent

Если у вас наблюдаются проблемы со скриншотами, переходом по ссылками, скачиванием торрентов - проблемы в блокировщике рекламы AdBlock. #хорошегоДня!


Статистика раздачи
Размер:  316 MB   |    Зарегистрирован:  5 лет 1 месяц   |    .torrent скачан:  9 раз   |   
Раздают:  1  
   
Загрузка...
 
Автор Сообщение

_N_

avatar _N_


Red & The Red Hots / Gettin' Around


Жанр: Jump Jive / Neo Swing
Страна-производитель диска: USA
Год издания: 1999
Издатель (лейбл): Red Young Productions
Номер по каталогу: 71002
Страна: USA
Аудиокодек: FLAC (*.flac)
Тип рипа: image+.cue
Битрейт аудио: lossless
Продолжительность: 49:13
Источник (релизер): Audelas Kingdom
Наличие сканов в содержимом раздачи: да
Треклист:
01. Mister Boogie to You
02. Moppin' N Boppin'
03. Boo-Wah Boo-Wah
04. Steppin' Out Tonight
05. Keep on Swingin'
06. At Last
07. Gettin' Around
08. Temporary Blues
09. Duke
10. Horse's Mouth
11. No Moon at All
12. Come Rain or Come Shine
Exact Audio Copy V1.0 beta 2 from 29. April 2011

EAC extraction logfile from 5. October 2012, 18:16

Red & The Red Hots / Gettin' Around

Used drive : _NEC DVD_RW ND-3550A Adapter: 1 ID: 0

Read mode : SecureUtilize accurate stream : YesDefeat audio cache : YesMake use of C2 pointers : No

Read offset correction : 48Overread into Lead-In and Lead-Out : NoFill up missing offset samples with silence : YesDelete leading and trailing silent blocks : NoNull samples used in CRC calculations : YesUsed interface : Native Win32 interface for Win NT & 2000

Used output format : User Defined EncoderSelected bitrate : 768 kBit/sQuality : HighAdd ID3 tag : NoCommand line compressor : C:\Program Files\Exact Audio Copy\FLAC\FLAC.EXEAdditional command line options : -6 -V -T "ARTIST=%artist%" -T "TITLE=%title%" -T "ALBUM=%albumtitle%" -T "DATE=%year%" -T "TRACKNUMBER=%tracknr%" -T "GENRE=%genre%" -T "COMMENT=%comment%" -T "BAND=%albuminterpret%" -T "COMPOSER=%composer%" %haslyrics%--ta

TOC of the extracted CD

Track | Start | Length | Start sector | End sector --------------------------------------------------------- 1 | 0:00.00 | 3:17.08 | 0 | 14782 2 | 3:17.08 | 3:10.02 | 14783 | 29034 3 | 6:27.10 | 3:08.55 | 29035 | 43189 4 | 9:35.65 | 4:36.70 | 43190 | 63959 5 | 14:12.60 | 3:59.73 | 63960 | 81957 6 | 18:12.58 | 3:42.26 | 81958 | 98633 7 | 21:55.09 | 4:59.69 | 98634 | 121127 8 | 26:55.03 | 5:52.37 | 121128 | 147564 9 | 32:47.40 | 4:08.67 | 147565 | 166231 10 | 36:56.32 | 4:58.27 | 166232 | 188608 11 | 41:54.59 | 2:57.02 | 188609 | 201885 12 | 44:51.61 | 4:06.12 | 201886 | 220347

Range status and errors

Selected range

Filename D:\Muzika\Red & The Red Hots - Gettin' Around (1999)\Red & The Red Hots - Gettin' Around.wav

Peak level 100.0 % Extraction speed 5.0 X Range quality 100.0 % Test CRC B4472A02 Copy CRC B4472A02 Copy OK

No errors occurred

AccurateRip summary

Track 1 accurately ripped (confidence 4) [5ABE519E] (AR v1)Track 2 accurately ripped (confidence 4) [EF267E81] (AR v1)Track 3 accurately ripped (confidence 4) [0565DEB4] (AR v1)Track 4 accurately ripped (confidence 4) [2FA242CC] (AR v1)Track 5 accurately ripped (confidence 4) [3EB52243] (AR v1)Track 6 accurately ripped (confidence 4) [3B7E37E5] (AR v1)Track 7 accurately ripped (confidence 4) [32E4806F] (AR v1)Track 8 accurately ripped (confidence 4) [6863AAD6] (AR v1)Track 9 accurately ripped (confidence 4) [05E63792] (AR v1)Track 10 accurately ripped (confidence 4) [87CC5DA8] (AR v1)Track 11 accurately ripped (confidence 4) [EC04A14F] (AR v1)Track 12 accurately ripped (confidence 4) [9EB9C325] (AR v1)

All tracks accurately ripped

End of status report

==== Log checksum 67D9100B3CFA41B99BC3868989C4A5E0A2695E8E65ECFF87495D436BF274514B ====


Трекер:  [ 06-Окт-2012 11:18 ]

  

Скачать .torrent

Размер .torrent файла 13 KB


Размер: 316 MB
Хэш (hash) релиза: c70e1ad4f4b0b1f5eb9f1c4032ce08d1021b37b6

Еще никто не оставлял запись к записи скачать торрент Red & The Red Hots - Gettin Around - 1999, . Будь первым!

!Обратная связь