Скачать через торрент музыку Shotgun - Born to Rock - 2002, FLAC бесплатно без регистрации torrent

Если у вас наблюдаются проблемы со скриншотами, переходом по ссылками, скачиванием торрентов - проблемы в блокировщике рекламы AdBlock. #хорошегоДня!


Статистика раздачи
Размер:  473 MB   |    Зарегистрирован:  5 лет   |    .torrent скачан:  15 раз   |   
Раздают:  1  
   
Загрузка...
 
Автор Сообщение

Galfimbul

avatar Galfimbul


Shotgun / Born to Rock

Жанр: Rockabilly
Страна-производитель диска: Russia
Год издания: 2002
Издатель (лейбл): Time Blues
Аудиокодек: FLAC (*.flac)
Тип рипа: image+.cue
Битрейт аудио: lossless
Продолжительность: 58'58''
Источник (релизер): Диск свой, рип свой
Наличие сканов в содержимом раздачи: да
Треклист:
CD: Shotgun - Born to Rock
YEAR: 2002

01. I Want My Baby Back [0:02:33.17]
02. I'm on the Wagon [0:02:22.40]
03. Don't Mess With My Baby [0:03:17.58]
04. Hot Rock [0:02:14.20]
05. Riding on My Motorbike [0:02:38.60]
06. Rockhouse Boogie [0:02:41.67]
07. Booze-a-Billy [0:02:03.38]
08. She's Going Out to Parties [0:02:40.62]
09. Polecat Stomp [0:01:58.40]
10. Don't Stop It [0:02:02.35]
11. Apeman Boogie [0:01:40.70]
12. Baby Please Don't Go [0:02:49.73]
13. She's a Dog [0:02:32.62]
14. Tell Me [0:02:22.45]
15. I've Had a Nervous Breakedown Before [0:02:29.18]
16. Tennessee Rockin' [0:02:55.07]
17. Cadillac '55 [0:02:39.13]
18. Hot Rock [0:01:47.10]
19. If I Had Me a Woman [0:02:36.20]
20. Amarillo Killer [0:02:09.15]
21. Turn to Me [0:03:32.62]
22. Grandaddy's Rockin' [0:03:15.65]
23. Good Rockin' Tomorrow [0:03:30.08]
Exact Audio Copy V1.0 beta 2 from 29. April 2011

Отчёт EAC об извлечении, выполненном 5. октября 2012, 13:27

Shotgun / Born to Rock

Дисковод: ASUS DRW-24B3ST Adapter: 6 ID: 0

Режим чтения : ДостоверностьИспользование точного потока : ДаОтключение кэша аудио : ДаИспользование указателей C2 : Нет

Коррекция смещения при чтении : 6Способность читать области Lead-in и Lead-out : НетЗаполнение пропущенных сэмплов тишиной : ДаУдаление блоков с тишиной в начале и конце : НетПри вычислениях CRC использовались нулевые сэмплы : ДаИнтерфейс : Установленный внешний ASPI-интерфейс

Выходной формат : Пользовательский кодировщикВыбранный битрейт : 896 kBit/sКачество : ВысокийДобавление ID3-тега : ДаУтилита сжатия : C:\Program Files\Exact Audio Copy\FLAC\FLAC.EXEДополнительные параметры : -6 -V -T "ARTIST=%artist%" -T "TITLE=%title%" -T "ALBUM=%albumtitle%" -T "DATE=%year%" -T "TRACKNUMBER=%tracknr%" -T "GENRE=%genre%" -T "COMMENT=%comment%" -T "BAND=%albuminterpret%" -T "COMPOSER=%composer%" %haslyrics%--tag-from-

TOC извлечённого CD

Трек | Старт | Длительность | Начальный сектор | Конечный сектор --------------------------------------------------------------------- 1 | 0:00.00 | 2:33.17 | 0 | 11491 2 | 2:33.17 | 2:22.40 | 11492 | 22181 3 | 4:55.57 | 3:17.58 | 22182 | 37014 4 | 8:13.40 | 2:14.20 | 37015 | 47084 5 | 10:27.60 | 2:38.60 | 47085 | 58994 6 | 13:06.45 | 2:41.67 | 58995 | 71136 7 | 15:48.37 | 2:03.38 | 71137 | 80399 8 | 17:52.00 | 2:40.62 | 80400 | 92461 9 | 20:32.62 | 1:58.40 | 92462 | 101351 10 | 22:31.27 | 2:02.35 | 101352 | 110536 11 | 24:33.62 | 1:40.70 | 110537 | 118106 12 | 26:14.57 | 2:49.73 | 118107 | 130854 13 | 29:04.55 | 2:32.62 | 130855 | 142316 14 | 31:37.42 | 2:22.45 | 142317 | 153011 15 | 34:00.12 | 2:29.18 | 153012 | 164204 16 | 36:29.30 | 2:55.07 | 164205 | 177336 17 | 39:24.37 | 2:39.13 | 177337 | 189274 18 | 42:03.50 | 1:47.10 | 189275 | 197309 19 | 43:50.60 | 2:36.20 | 197310 | 209029 20 | 46:27.05 | 2:09.15 | 209030 | 218719 21 | 48:36.20 | 3:32.62 | 218720 | 234681 22 | 52:09.07 | 3:15.65 | 234682 | 249371 23 | 55:24.72 | 3:30.08 | 249372 | 265129

Характеристики диапазона извлечения и сообщения об ошибках

Выбранный диапазон

Имя файла C:\Documents and Settings\Admin\Рабочий стол\Shotgun - Born to Rock - 2002 - 58'58''\Shotgun - Born to Rock.wav

Пиковый уровень 98.2 % Скорость извлечения 3.1 X Качество диапазона 100.0 % CRC теста 3454C350 CRC копии 3454C350 Копирование... OK

Ошибок не произошло

Конец отчёта

==== Контрольная сумма отчёта CA8215A963BCE9D579964E7A480A4B28604064F97DBD01151A7812D8A9917A93 ====
-----------------------

DON'T MODIFY THIS FILE

-----------------------

PERFORMER: auCDtect Task Manager, ver. 1.5.1RC4 build 1.5.1.5Copyright (c) 2008-2010 y-soft. All rights reservedhttp://y-soft.org

ANALYZER: auCDtect: CD records authenticity detector, version 0.8.2Copyright (c) 2004 Oleg Berngardt. All rights reserved.Copyright (c) 2004 Alexander Djourik. All rights reserved.

FILE: Shotgun - Born to Rock.flac Size: 436367618 Hash: 11983BF541E5394B85B9998DD1945ADA Accuracy: -m0 Conclusion: CDDA 100% Signature: 589F67CDC4F98AF24786E7BD8F64531719DCF288


Трекер:  [ 07-Окт-2012 18:30 ]

  

Скачать .torrent

Размер .torrent файла 19 KB


Размер: 473 MB
Хэш (hash) релиза: 4753a7f1cd0e778d315109a0fb1f15a49afe099f

Еще никто не оставлял запись к записи скачать торрент Shotgun - Born to Rock - 2002, FLAC . Будь первым!

!Обратная связь