Скачать через торрент музыку Mick Jones бесплатно без регистрации torrent

Если у вас наблюдаются проблемы со скриншотами, переходом по ссылками, скачиванием торрентов - проблемы в блокировщике рекламы AdBlock. #хорошегоДня!


Статистика раздачи
Размер:  278 MB   |    Зарегистрирован:  5 лет   |    .torrent скачан:  36 раз   |   
Раздают:  1  
   
Загрузка...
 
Автор Сообщение

_N_

avatar _N_


Mick Jones - Mick Jones

Жанр: Melodic Hard Rock
Страна-производитель диска: Canada
Год издания: 1989
Издатель (лейбл): Atlantic\WEA International
Номер по каталогу: CD 81991
Страна: USA
Аудиокодек: FLAC (*.flac)
Тип рипа: image+.cue
Битрейт аудио: lossless
Продолжительность: 00:42:08
Источник (релизер): My CD
Наличие сканов в содержимом раздачи: да
Треклист:
01 - Just Wanna Hold [00:03:33]
02 - Save Me Tonight [00:03:51]
03 - That's The Way My Love Is [00:03:26]
04 - The Wrong Side Of The Law [00:05:19]
05 - 4 Wheels Turnin' [00:04:39]
06 - Everything That Comes Around [00:04:47]
07 - You Are My Friend [00:05:44]
08 - Danielle [00:04:37]
09 - Write Tonight [00:04:23]
10 - Johnny (Part 1) [00:01:44]

Exact Audio Copy V1.0 beta 3 from 29. August 2011

EAC extraction logfile from 4. October 2012, 11:26

Mick Jones / Mick Jones

Used drive : MATSHITADVD-RAM UJ-850S Adapter: 1 ID: 0

Read mode : SecureUtilize accurate stream : YesDefeat audio cache : YesMake use of C2 pointers : No

Read offset correction : 102Overread into Lead-In and Lead-Out : NoFill up missing offset samples with silence : YesDelete leading and trailing silent blocks : NoNull samples used in CRC calculations : YesUsed interface : Native Win32 interface for Win NT & 2000

Used output format : User Defined EncoderSelected bitrate : 640 kBit/sQuality : HighAdd ID3 tag : NoCommand line compressor : C:\Program Files\Exact Audio Copy\Flac\flac.exeAdditional command line options : -V -8 -T "Date=%year%" -T "Genre=%genre%" %source%

TOC of the extracted CD

Track | Start | Length | Start sector | End sector --------------------------------------------------------- 1 | 0:00.32 | 3:33.55 | 32 | 16061 2 | 3:34.12 | 3:53.05 | 16062 | 33541 3 | 7:27.17 | 3:28.23 | 33542 | 49164 4 | 10:55.40 | 5:21.35 | 49165 | 73274 5 | 16:17.00 | 4:39.32 | 73275 | 94231 6 | 20:56.32 | 4:49.03 | 94232 | 115909 7 | 25:45.35 | 5:44.50 | 115910 | 141759 8 | 31:30.10 | 4:38.07 | 141760 | 162616 9 | 36:08.17 | 4:25.50 | 162617 | 182541 10 | 40:33.67 | 1:44.33 | 182542 | 190374

Range status and errors

Selected range

Filename C:\Users\815815\Desktop\Новая папка\Mick Jones - Mick Jones.wav

Peak level 97.2 % Extraction speed 2.3 X Range quality 100.0 % Test CRC 9A64D181 Copy CRC 9A64D181 Copy OK

No errors occurred

AccurateRip summary

Track 1 accurately ripped (confidence 5) [4CA9D7CB] (AR v1)Track 2 accurately ripped (confidence 5) [705C3AB3] (AR v1)Track 3 accurately ripped (confidence 5) [2B53BAA9] (AR v1)Track 4 accurately ripped (confidence 5) [0AA076B3] (AR v1)Track 5 accurately ripped (confidence 5) [FD1FADE5] (AR v1)Track 6 accurately ripped (confidence 5) [0ED20B5E] (AR v1)Track 7 accurately ripped (confidence 5) [321380D4] (AR v1)Track 8 accurately ripped (confidence 5) [562B3124] (AR v1)Track 9 accurately ripped (confidence 5) [CB360317] (AR v1)Track 10 accurately ripped (confidence 5) [E6407932] (AR v1)

All tracks accurately ripped

End of status report

==== Log checksum 10DB7CB29C33F8A334C133CC71CE7DEC94E7AC119D33F53AB6BE8646FC1C0BF1 ====
Jones was born in Portsmouth, Hampshire. He began his music career in the early 1960s as a member of the band Nero and the Gladiators, who scored two minor British hit singles in 1961. After the demise of the band, Jones worked as a songwriter and session musician for such artists as Sylvie Vartan and Johnny Hallyday, for whom he wrote many songs, including "Je suis né dans la rue" and "À tout casser" which features Jimmy Page on guitar, until he joined Gary Wright, formerly of the band Spooky Tooth, to form Wonderwheel. In 1973, Jones and Wright reformed Spooky Tooth, and after this Jones was a member of the Leslie West Band. He also played guitar on the albums Wind of Change (1972) for Peter Frampton, and Dark Horse (1974) for George Harrison.

In 1976 he formed Foreigner with Ian McDonald and recruited vocalist Lou Gramm. Jones co-produced all of the group's albums and co-wrote most of their songs with Gramm. Jones wrote the band's biggest and most successful single, "I Want to Know What Love Is".[1][2] Tensions developed within the band during the early 1980s and were attributed to a difference in musical taste between Gramm, who favoured a more hard-edged rock, as opposed to Jones' interest in synthesisers. Gramm left the band in 1989 but returned in 1991. Also in 1989, Jones released his only solo album titled Mick Jones on the Atlantic Records label. Jones is the only person to play on every Foreigner album.

He co-wrote with Eric Clapton the song "Bad Love" on Clapton's Journeyman album,[3] and in 2002 co-wrote the song "On Her Mind" with Duncan Sheik.[4] In the late 1990s and early 2000s, he played with Bill Wyman's Rhythm Kings.

He was married to socialite/writer Ann Dexter-Jones, mother of Mark, Samantha and Charlotte Ronson. Ann and Mick have two children, Annabelle and Alexander Dexter-Jones. Married for nearly 25 years, in 2007 Mick and Ann divorced. He also has two sons, from prior relationships, Roman and Christopher Jones.
Mick Jones is singer-songwriter Mick Jones's self-titled debut/studio album, released in 1989. Jones is one of the original members of the group Foreigner. The album was Mick Jones' only solo release.

Released on Atlantic Records, this album included Billy Joel and Carly Simon as guest singers. Joel sang with Jones on the song "Just Wanna Hold" and Simon sang with Jones on the songs "That's The Way My Love Is" and "Write Tonight". It is widely believed that the co-composer "M Phillips" on the track "Just Wanna Hold" is a pseudonym of Mick Jagger.


Трекер:  [ 06-Окт-2012 11:20 ]

  

Скачать .torrent

Размер .torrent файла 11 KB


Размер: 278 MB
Хэш (hash) релиза: de91f53043e1e2f667b50a21ff880dcfc0ac4cb8

Еще никто не оставлял запись к записи скачать торрент Mick Jones . Будь первым!

!Обратная связь