Скачать через торрент музыку La Grande Sophie - La Place du fantôme - 2012, FLAC бесплатно без регистрации torrent

Если у вас наблюдаются проблемы со скриншотами, переходом по ссылками, скачиванием торрентов - проблемы в блокировщике рекламы AdBlock. #хорошегоДня!


Статистика раздачи
Размер:  232 MB   |    Зарегистрирован:  4 года 10 месяцев   |    .torrent скачан:  7 раз   |   
Раздают:  1  
   
Загрузка...
 
Автор Сообщение

_N_

avatar _N_


La Grande Sophie / La Place du fantôme

Жанр: Pop-Rock, french
Год издания: 2012
Аудиокодек: FLAC (*.flac)
Тип рипа: tracks+.cue
Битрейт аудио: lossless
Продолжительность: 00:38:20
Источник (релизер): What.cd
Наличие сканов в содержимом раздачи: нет
Треклист:
01. Bye bye etc... (3:41)
02. Peut-être jamais (4:27)
03. Ne m'oublie pas (3:36)
04. Sucrer les fraises (3:10)
05. Dans ton royaume (2:57)
06. Ma radio (5:36)
07. Tu fais ton âge (3:15)
08. Quand on parle de toi (2:58)
09. Ecris-moi (4:28)
10. Suzanne (4:13)
Exact Audio Copy V1.0 beta 1 from 15. November 2010

EAC extraction logfile from 17. February 2012, 9:37

La Grande Sophie / La Place du Fantôme

Used drive : PIONEER DVD-RW DVR-109 Adapter: 0 ID: 0

Read mode : SecureUtilize accurate stream : YesDefeat audio cache : YesMake use of C2 pointers : No

Read offset correction : 48Overread into Lead-In and Lead-Out : NoFill up missing offset samples with silence : YesDelete leading and trailing silent blocks : NoNull samples used in CRC calculations : YesUsed interface : Native Win32 interface for Win NT & 2000Gap handling : Appended to previous track

Used output format : User Defined EncoderSelected bitrate : 320 kBit/sQuality : HighAdd ID3 tag : NoCommand line compressor : C:\Program Files\Exact Audio Copy\flac.exeAdditional command line options : -V -8 -T "artist=%a" -T "title=%t" -T "album=%g" -T "date=%y" -T "tracknumber=%n" -T "genre=%m" %s

TOC of the extracted CD

Track | Start | Length | Start sector | End sector --------------------------------------------------------- 1 | 0:00.00 | 3:41.06 | 0 | 16580 2 | 3:41.06 | 4:26.39 | 16581 | 36569 3 | 8:07.45 | 3:35.43 | 36570 | 52737 4 | 11:43.13 | 3:09.74 | 52738 | 66986 5 | 14:53.12 | 2:57.18 | 66987 | 80279 6 | 17:50.30 | 5:36.12 | 80280 | 105491 7 | 23:26.42 | 3:15.29 | 105492 | 120145 8 | 26:41.71 | 2:57.40 | 120146 | 133460 9 | 29:39.36 | 4:27.48 | 133461 | 153533 10 | 34:07.09 | 4:12.73 | 153534 | 172506

Track 1

Filename C:\Torrent\FLAC\La Grande Sophie - La Place du Fantôme (2012) [FLAC]\01 - Bye-Bye etc..wav

Pre-gap length 0:00:02.00

Peak level 100.0 % Extraction speed 2.6 X Track quality 100.0 % Test CRC DADBCA34 Copy CRC DADBCA34 Track not present in AccurateRip database Copy OK

Track 2

Filename C:\Torrent\FLAC\La Grande Sophie - La Place du Fantôme (2012) [FLAC]\02 - Peut-être Jamais.wav

Peak level 100.0 % Extraction speed 2.9 X Track quality 100.0 % Test CRC 91E18FBD Copy CRC 91E18FBD Track not present in AccurateRip database Copy OK

Track 3

Filename C:\Torrent\FLAC\La Grande Sophie - La Place du Fantôme (2012) [FLAC]\03 - Ne m'oublie pas.wav

Peak level 100.0 % Extraction speed 3.1 X Track quality 100.0 % Test CRC 608D78A4 Copy CRC 608D78A4 Track not present in AccurateRip database Copy OK

Track 4

Filename C:\Torrent\FLAC\La Grande Sophie - La Place du Fantôme (2012) [FLAC]\04 - Sucrer les Fraises.wav

Peak level 100.0 % Extraction speed 3.2 X Track quality 100.0 % Test CRC 6943E96E Copy CRC 6943E96E Track not present in AccurateRip database Copy OK

Track 5

Filename C:\Torrent\FLAC\La Grande Sophie - La Place du Fantôme (2012) [FLAC]\05 - Dans ton Royaume.wav

Peak level 100.0 % Extraction speed 3.3 X Track quality 100.0 % Test CRC 7128815E Copy CRC 7128815E Track not present in AccurateRip database Copy OK

Track 6

Filename C:\Torrent\FLAC\La Grande Sophie - La Place du Fantôme (2012) [FLAC]\06 - Ma Radio.wav

Peak level 100.0 % Extraction speed 3.8 X Track quality 100.0 % Test CRC 45184FE2 Copy CRC 45184FE2 Track not present in AccurateRip database Copy OK

Track 7

Filename C:\Torrent\FLAC\La Grande Sophie - La Place du Fantôme (2012) [FLAC]\07 - Tu fais ton Age.wav

Peak level 99.5 % Extraction speed 3.8 X Track quality 100.0 % Test CRC 44A5BA88 Copy CRC 44A5BA88 Track not present in AccurateRip database Copy OK

Track 8

Filename C:\Torrent\FLAC\La Grande Sophie - La Place du Fantôme (2012) [FLAC]\08 - Quand on parle de toi.wav

Pre-gap length 0:00:01.32

Peak level 99.8 % Extraction speed 3.8 X Track quality 100.0 % Test CRC 9316FC17 Copy CRC 9316FC17 Track not present in AccurateRip database Copy OK

Track 9

Filename C:\Torrent\FLAC\La Grande Sophie - La Place du Fantôme (2012) [FLAC]\09 - Ecris-moi.wav

Pre-gap length 0:00:01.12

Peak level 99.0 % Extraction speed 3.7 X Track quality 99.9 % Test CRC 787CF301 Copy CRC 787CF301 Track not present in AccurateRip database Copy OK

Track 10

Filename C:\Torrent\FLAC\La Grande Sophie - La Place du Fantôme (2012) [FLAC]\10 - Suzanne.wav

Pre-gap length 0:00:01.00

Peak level 99.4 % Extraction speed 4.3 X Track quality 100.0 % Test CRC C5CD2BCE Copy CRC C5CD2BCE Track not present in AccurateRip database Copy OK

None of the tracks are present in the AccurateRip database

No errors occurred

End of status report

==== Log checksum 44A12BA9F0775E87C80883E26818EB7765EEC1C00EFA5139C7FE5F0FEB280BF5 ====
REM GENRE PopREM DATE 2012REM DISCID 8108FC0AREM COMMENT "ExactAudioCopy v1.0b1"FILE "La Grande Sophie - La Place du Fantфme (2012) [FLAC]\01 - Bye-Bye etc..wav" WAVE TRACK 01 AUDIO INDEX 01 00:00:00FILE "La Grande Sophie - La Place du Fantфme (2012) [FLAC]\02 - Peut-кtre Jamais.wav" WAVE TRACK 02 AUDIO INDEX 01 00:00:00FILE "La Grande Sophie - La Place du Fantфme (2012) [FLAC]\03 - Ne m'oublie pas.wav" WAVE TRACK 03 AUDIO INDEX 01 00:00:00FILE "La Grande Sophie - La Place du Fantфme (2012) [FLAC]\04 - Sucrer les Fraises.wav" WAVE TRACK 04 AUDIO INDEX 01 00:00:00FILE "La Grande Sophie - La Place du Fantфme (2012) [FLAC]\05 - Dans ton Royaume.wav" WAVE TRACK 05 AUDIO INDEX 01 00:00:00FILE "La Grande Sophie - La Place du Fantфme (2012) [FLAC]\06 - Ma Radio.wav" WAVE TRACK 06 AUDIO INDEX 01 00:00:00FILE "La Grande Sophie - La Place du Fantфme (2012) [FLAC]\07 - Tu fais ton Age.wav" WAVE TRACK 07 AUDIO INDEX 01 00:00:00 TRACK 08 AUDIO INDEX 00 03:14:05FILE "La Grande Sophie - La Place du Fantфme (2012) [FLAC]\08 - Quand on parle de toi.wav" WAVE INDEX 01 00:00:00 TRACK 09 AUDIO INDEX 00 02:56:31FILE "La Grande Sophie - La Place du Fantфme (2012) [FLAC]\09 - Ecris-moi.wav" WAVE INDEX 01 00:00:00 TRACK 10 AUDIO INDEX 00 04:26:48FILE "La Grande Sophie - La Place du Fantфme (2012) [FLAC]\10 - Suzanne.wav" WAVE INDEX 01 00:00:00


Трекер:  [ 01-Окт-2012 20:26 ]

  

Скачать .torrent

Размер .torrent файла 19 KB


Размер: 232 MB
Хэш (hash) релиза: 26091816c67f3b6549b4c4b15763222a7d44f76e

Еще никто не оставлял запись к записи скачать торрент La Grande Sophie - La Place du fantôme - 2012, FLAC . Будь первым!

!Обратная связь