Скачать через торрент музыку OneRepublic - Discography 2007 - 2012 бесплатно без регистрации torrent

Если у вас наблюдаются проблемы со скриншотами, переходом по ссылками, скачиванием торрентов - проблемы в блокировщике рекламы AdBlock. #хорошегоДня!


Статистика раздачи
Размер:  1.64 GB   |    Зарегистрирован:  4 года 10 месяцев   |    .torrent скачан:  53 раза   |   
Раздают:  1  
   
Загрузка...
 
Автор Сообщение

_N_

avatar _N_


Studio Albums & Singles & PromosЖанр: Pop-Rock
Страна-производитель диска: EU
Год издания диска: 2007 - 2012

Аудио кодек: FLAC
Тип рипа: image+.cue
Режим рипа: test & copy
Битрейт аудио: lossless
Продолжительность: 03:48:48

Источник (релизер): sewerok
Наличие сканов в содержимом раздачи: даStudio Albums
Год выпуска альбомa: 2007
Год выпуска дискa: 2007
Производитель дискa / Label: EU / Mosley Music / Interscope Records
Аудио кодек: FLAC
Тип рипа: image+.cue
Битрейт аудио: lossless
Продолжительность: 00:57:35

Трэклист:
01. Say (All I Need) [0:03:50.65]
02. Mercy [0:04:01.02]
03. Stop And Stare [0:03:43.85]
04. Apologize [0:03:28.46]
05. Goodbye, Apathy [0:03:32.34]
06. All Fall Down [0:04:05.06]
07. Tyrant [0:05:03.17]
08. Prodigal [0:03:55.14]
09. Won't Stop [0:05:03.20]
10. All We Are [0:04:28.12]
11. Someone To Save You [0:04:15.30]
12. Come Home [0:04:23.90]
13. Dreaming Out Loud (Bonus) [0:04:40.33]
14. Apologize (Timbaland Remix) (Bonus) [0:03:04.82]
Exact Audio Copy V0.99 prebeta 4 from 23. January 2008

Отчёт EAC об извлечении, выполненном 13. мая 2010, 15:12

OneRepublic / Dreaming Out Loud

Дисковод: TSSTcorpCD/DVDW TS-L632D Adapter: 0 ID: 0

Режим чтения : ДостоверностьИспользование точного потока : ДаОтключение кэша аудио : ДаИспользование указателей C2 : Нет

Коррекция смещения при чтении : 6Способность читать области Lead-in и Lead-out : НетЗаполнение пропущенных сэмплов тишиной : ДаУдаление блоков с тишиной в начале и конце : НетПри вычислениях CRC использовались нулевые сэмплы : ДаИнтерфейс : Встроенный Win32-интерфейс для Win NT/2000

Выходной формат : Пользовательский кодировщикВыбранный битрейт : 768 kBit/sКачество : ВысокийДобавление ID3-тэга : НетУтилита сжатия : C:\Program Files\Exact Audio Copy\FLAC\FLAC.EXEДополнительные параметры : -8 -V %s

TOC извлечённого CD

Трек | Старт | Длительность | Начальный сектор | Конечный сектор --------------------------------------------------------------------- 1 | 0:00.00 | 3:50.49 | 0 | 17298 2 | 3:50.49 | 4:01.02 | 17299 | 35375 3 | 7:51.51 | 3:43.64 | 35376 | 52164 4 | 11:35.40 | 3:28.35 | 52165 | 67799 5 | 15:04.00 | 3:32.26 | 67800 | 83725 6 | 18:36.26 | 4:05.05 | 83726 | 102105 7 | 22:41.31 | 5:03.13 | 102106 | 124843 8 | 27:44.44 | 3:55.11 | 124844 | 142479 9 | 31:39.55 | 5:03.15 | 142480 | 165219 10 | 36:42.70 | 4:28.09 | 165220 | 185328 11 | 41:11.04 | 4:15.23 | 185329 | 204476 12 | 45:26.27 | 4:23.68 | 204477 | 224269 13 | 49:50.20 | 4:40.25 | 224270 | 245294 14 | 54:30.45 | 3:04.62 | 245295 | 259156

Характеристики диапазона извлечения и сообщения об ошибках

Выбранный диапазон

Имя файла D:\Torrents\OneRepublic - Discography (Lossless)\OneRepublic - Dreaming Out Loud (2007)\OneRepublic - Dreaming Out Loud.wav

Пиковый уровень 100.0 % Качество диапазона 100.0 % CRC теста 8E6FE7F4 CRC копии 8E6FE7F4 Копирование... OK

Ошибок не произошло

AccurateRip: сводка

Трек 1 точное извлечение (доверие 72) [E5EB5271]Трек 2 точное извлечение (доверие 71) [06F7BD3D]Трек 3 точное извлечение (доверие 74) [E6E3D50E]Трек 4 точное извлечение (доверие 72) [17C52073]Трек 5 точное извлечение (доверие 73) [302C5471]Трек 6 точное извлечение (доверие 72) [C7A95C80]Трек 7 точное извлечение (доверие 72) [EF1F6729]Трек 8 точное извлечение (доверие 73) [FDEDBA19]Трек 9 точное извлечение (доверие 72) [03A3FD43]Трек 10 точное извлечение (доверие 72) [84FBCF30]Трек 11 точное извлечение (доверие 71) [542E0676]Трек 12 точное извлечение (доверие 71) [9F1E8C99]Трек 13 точное извлечение (доверие 71) [18BE0D1A]Трек 14 точное извлечение (доверие 74) [90EA8225]

Все треки извлечены точно

Конец отчёта
Год выпуска альбомa: 2009
Год выпуска дисков: 2010
Производитель дискa / Label: EU / Mosley Music / Interscope Records
Аудио кодек: FLAC
Тип рипа: image+.cue
Битрейт аудио: lossless
Продолжительность: 01:14:52

Трэклист:
CD 1
01. Made for you [0:04:17.49]
02. All the right moves [0:03:58.00]
03. Secrets [0:03:44.68]
04. Everybody loves me [0:03:38.97]
05. Missing persons 1&2 [0:04:59.42]
06. Good life [0:04:12.37]
07. All this time [0:03:35.74]
08. Fear [0:03:47.45]
09. Waking up [0:06:09.30]
10. Marchin on [0:04:13.06]
11. Lullaby [0:04:36.98]
12. Sleep (Bonus) [0:05:54.97]
13. Shout (Bonus) [0:04:24.61]

CD 2
01. Passenger [0:04:02.89]
02. It's A Shame [0:04:52.81]
03. Trap Door [0:03:56.62]
04. Sucker Punch [0:04:26.97]
Exact Audio Copy V0.99 prebeta 4 from 23. January 2008

Отчёт EAC об извлечении, выполненном 13. мая 2010, 18:29

OneRepublic / Waking up

Дисковод: TSSTcorpCD/DVDW TS-L632D Adapter: 0 ID: 0

Режим чтения : ДостоверностьИспользование точного потока : ДаОтключение кэша аудио : ДаИспользование указателей C2 : Нет

Коррекция смещения при чтении : 6Способность читать области Lead-in и Lead-out : НетЗаполнение пропущенных сэмплов тишиной : ДаУдаление блоков с тишиной в начале и конце : НетПри вычислениях CRC использовались нулевые сэмплы : ДаИнтерфейс : Встроенный Win32-интерфейс для Win NT/2000

Выходной формат : Пользовательский кодировщикВыбранный битрейт : 768 kBit/sКачество : ВысокийДобавление ID3-тэга : НетУтилита сжатия : C:\Program Files\Exact Audio Copy\FLAC\FLAC.EXEДополнительные параметры : -8 -V %s

TOC извлечённого CD

Трек | Старт | Длительность | Начальный сектор | Конечный сектор --------------------------------------------------------------------- 1 | 0:00.00 | 4:17.37 | 0 | 19311 2 | 4:17.37 | 3:58.00 | 19312 | 37161 3 | 8:15.37 | 3:44.51 | 37162 | 54012 4 | 12:00.13 | 3:38.73 | 54013 | 70435 5 | 15:39.11 | 4:59.32 | 70436 | 92892 6 | 20:38.43 | 4:12.28 | 92893 | 111820 7 | 24:50.71 | 3:35.56 | 111821 | 128001 8 | 28:26.52 | 3:47.34 | 128002 | 145060 9 | 32:14.11 | 6:09.23 | 145061 | 172758 10 | 38:23.34 | 4:13.05 | 172759 | 191738 11 | 42:36.39 | 4:36.74 | 191739 | 212512 12 | 47:13.38 | 5:54.73 | 212513 | 239135 13 | 53:08.36 | 4:24.46 | 239136 | 258981

Характеристики диапазона извлечения и сообщения об ошибках

Выбранный диапазон

Имя файла D:\Torrents\OneRepublic - Discography (Lossless)\OneRepublic - Waking Up 2009\Disc 1\OneRepublic - Waking up.wav

Пиковый уровень 100.0 % Качество диапазона 100.0 % CRC теста 78F3CC2B CRC копии 78F3CC2B Копирование... OK

Ошибок не произошло

AccurateRip: сводка

Трек 1 точное извлечение (доверие 3) [F1A6F567]Трек 2 точное извлечение (доверие 4) [28F8E029]Трек 3 точное извлечение (доверие 4) [6CA4C4BA]Трек 4 точное извлечение (доверие 4) [3BE0F8FC]Трек 5 точное извлечение (доверие 4) [1F6F05AD]Трек 6 точное извлечение (доверие 4) [7DCBBA6C]Трек 7 точное извлечение (доверие 4) [90F2D4FD]Трек 8 точное извлечение (доверие 4) [1670AD5F]Трек 9 точное извлечение (доверие 4) [947CC263]Трек 10 точное извлечение (доверие 4) [AEB46471]Трек 11 точное извлечение (доверие 3) [BC2982EB]Трек 12 точное извлечение (доверие 3) [F02BF554]Трек 13 точное извлечение (доверие 4) [935920AB]

Все треки извлечены точно

Конец отчётa
Exact Audio Copy V0.99 prebeta 4 from 23. January 2008

Отчёт EAC об извлечении, выполненном 13. мая 2010, 19:22

OneRepublic / Waking Up [Deluxe Edition] CD2

Дисковод: TSSTcorpCD/DVDW TS-L632D Adapter: 0 ID: 0

Режим чтения : ДостоверностьИспользование точного потока : ДаОтключение кэша аудио : ДаИспользование указателей C2 : Нет

Коррекция смещения при чтении : 6Способность читать области Lead-in и Lead-out : НетЗаполнение пропущенных сэмплов тишиной : ДаУдаление блоков с тишиной в начале и конце : НетПри вычислениях CRC использовались нулевые сэмплы : ДаИнтерфейс : Встроенный Win32-интерфейс для Win NT/2000

Выходной формат : Пользовательский кодировщикВыбранный битрейт : 768 kBit/sКачество : ВысокийДобавление ID3-тэга : НетУтилита сжатия : C:\Program Files\Exact Audio Copy\FLAC\FLAC.EXEДополнительные параметры : -8 -V %s

TOC извлечённого CD

Трек | Старт | Длительность | Начальный сектор | Конечный сектор --------------------------------------------------------------------- 1 | 0:00.00 | 4:02.67 | 0 | 18216 2 | 4:02.67 | 4:52.61 | 18217 | 40177 3 | 8:55.53 | 3:56.47 | 40178 | 57924 4 | 12:52.25 | 4:26.73 | 57925 | 77947

Характеристики диапазона извлечения и сообщения об ошибках

Выбранный диапазон

Имя файла D:\Torrents\OneRepublic - Discography (Lossless)\OneRepublic - Waking Up (2009)\Disc 2\OneRepublic - Waking Up [Deluxe Edition] CD2.wav

Пиковый уровень 98.8 % Качество диапазона 100.0 % CRC теста FFC87ABB CRC копии FFC87ABB Копирование... OK

Ошибок не произошло

AccurateRip: сводка

Трек 1 точность не определена (достоверность 1) [DFA3FDDD], AccurateRip вернул [FD56C079]Трек 2 точность не определена (достоверность 1) [377DC674], AccurateRip вернул [28C605D8]Трек 3 точность не определена (достоверность 1) [961AE1F1], AccurateRip вернул [58FF7BBD]Трек 4 точность не определена (достоверность 1) [3F915CA7], AccurateRip вернул [AB1F1ADB]

Ни один трек не прошёл проверки на точностьВ вашей базе может быть иной вариант штамповки диска

Конец отчёта
Singles
Год выпуска дискa: 2007
Производитель дискa / Label: EU / Mosley Music / Interscope Records
Аудио кодек: FLAC
Тип рипа: image+.cue
Битрейт аудио: lossless
Продолжительность: 00:10:06

Трэклист:
01. Apologize (Timbaland presents OneRepublic) [0:03:05.57]
02. Apologize (OneRepublic Version) [0:03:28.65]
03. The Way I Are (OneRepublic Remix) [0:03:32.28]
Exact Audio Copy V0.99 prebeta 4 from 23. January 2008

Отчёт EAC об извлечении, выполненном 13. мая 2010, 20:24

OneRepublic (Timbaland presents OneRepublic) / Apologize

Дисковод: TSSTcorpCD/DVDW TS-L632D Adapter: 0 ID: 0

Режим чтения : ДостоверностьИспользование точного потока : ДаОтключение кэша аудио : ДаИспользование указателей C2 : Нет

Коррекция смещения при чтении : 6Способность читать области Lead-in и Lead-out : НетЗаполнение пропущенных сэмплов тишиной : ДаУдаление блоков с тишиной в начале и конце : НетПри вычислениях CRC использовались нулевые сэмплы : ДаИнтерфейс : Встроенный Win32-интерфейс для Win NT/2000

Выходной формат : Пользовательский кодировщикВыбранный битрейт : 768 kBit/sКачество : ВысокийДобавление ID3-тэга : НетУтилита сжатия : C:\Program Files\Exact Audio Copy\FLAC\FLAC.EXEДополнительные параметры : -8 -V %s

TOC извлечённого CD

Трек | Старт | Длительность | Начальный сектор | Конечный сектор --------------------------------------------------------------------- 1 | 0:00.00 | 3:05.43 | 0 | 13917 2 | 3:05.43 | 3:28.49 | 13918 | 29566 3 | 6:34.17 | 3:32.21 | 29567 | 45487

Характеристики диапазона извлечения и сообщения об ошибках

Выбранный диапазон

Имя файла D:\Torrents\OneRepublic - Discography (Lossless)\Singles\OneRepublic - Apologize (Timbaland presents OneRepublic) (2007)\OneRepublic (Timbaland presents OneRepublic) - Apologize.wav

Пиковый уровень 100.0 % Качество диапазона 100.0 % CRC теста C5738D0C CRC копии C5738D0C Копирование... OK

Ошибок не произошло

AccurateRip: сводка

Трек 1 точное извлечение (доверие 1) [1C51B89C]Трек 2 точное извлечение (доверие 1) [8AC64C58]Трек 3 точное извлечение (доверие 1) [9624ABD8]

Все треки извлечены точно

Конец отчёта
Год выпуска дискa: 2008
Производитель дискa / Label: EU / Mosley Music / Interscope Records
Аудио кодек: FLAC
Тип рипа: image+.cue
Битрейт аудио: lossless
Продолжительность: 00:10:49

Трэклист:
01. Stop And Stare [0:03:44.89]
02. Something's Not Right Here [0:03:03.80]
03. Hearing Voices [0:04:00.60]
Exact Audio Copy V0.99 prebeta 4 from 23. January 2008

EAC extraction logfile from 8. June 2010, 20:33

OneRepublic / Stop And Stare

Used drive : TSSTcorpCD/DVDW TS-L632D Adapter: 0 ID: 0

Read mode : SecureUtilize accurate stream : YesDefeat audio cache : YesMake use of C2 pointers : No

Read offset correction : 6Overread into Lead-In and Lead-Out : NoFill up missing offset samples with silence : YesDelete leading and trailing silent blocks : NoNull samples used in CRC calculations : YesUsed interface : Native Win32 interface for Win NT & 2000

Used output format : User Defined EncoderSelected bitrate : 768 kBit/sQuality : HighAdd ID3 tag : NoCommand line compressor : C:\Program Files\Exact Audio Copy\FLAC\FLAC.EXEAdditional command line options : -8 -V %s

TOC of the extracted CD

Track | Start | Length | Start sector | End sector --------------------------------------------------------- 1 | 0:00.00 | 3:44.67 | 0 | 16866 2 | 3:44.67 | 3:03.60 | 16867 | 30651 3 | 6:48.52 | 4:00.45 | 30652 | 48696

Range status and errors

Selected range

Filename D:\Torrents\OneRepublic - Discography (Lossless) (ripped by sewerok)\Singles\2. OneRepublic - Stop And Stare (2008)\OneRepublic - Stop And Stare.wav

Peak level 98.8 % Range quality 100.0 % Test CRC BCD8AB97 Copy CRC BCD8AB97 Copy OK

No errors occurred

AccurateRip summary

Track 1 not present in databaseTrack 2 not present in databaseTrack 3 not present in database

None of the tracks are present in the AccurateRip database

End of status report
Год выпуска дискa: 2008
Производитель дискa / Label: EU / Mosley Music / Interscope Records
Аудио кодек: FLAC
Тип рипа: image+.cue
Битрейт аудио: lossless
Продолжительность: 00:11:43

Трэклист:
01. Say (All I Need) (Album Version) [0:03:52.20]
02. Mercy (Radio 1 Live Lounge Session) (Duffy Cover) [0:03:44.80]
03. Say (All I Need) (Live) [0:04:06.97]
Exact Audio Copy V0.99 prebeta 4 from 23. January 2008

Отчёт EAC об извлечении, выполненном 14. мая 2010, 10:09

OneRepublic / Say (All I Need)

Дисковод: TSSTcorpCD/DVDW TS-L632D Adapter: 0 ID: 0

Режим чтения : ДостоверностьИспользование точного потока : ДаОтключение кэша аудио : ДаИспользование указателей C2 : Нет

Коррекция смещения при чтении : 6Способность читать области Lead-in и Lead-out : НетЗаполнение пропущенных сэмплов тишиной : ДаУдаление блоков с тишиной в начале и конце : НетПри вычислениях CRC использовались нулевые сэмплы : ДаИнтерфейс : Встроенный Win32-интерфейс для Win NT/2000

Выходной формат : Пользовательский кодировщикВыбранный битрейт : 768 kBit/sКачество : ВысокийДобавление ID3-тэга : НетУтилита сжатия : C:\Program Files\Exact Audio Copy\FLAC\FLAC.EXEДополнительные параметры : -8 -V %s

TOC извлечённого CD

Трек | Старт | Длительность | Начальный сектор | Конечный сектор --------------------------------------------------------------------- 1 | 0:00.00 | 3:52.15 | 0 | 17414 2 | 3:52.15 | 3:44.60 | 17415 | 34274 3 | 7:37.00 | 4:06.73 | 34275 | 52797

Характеристики диапазона извлечения и сообщения об ошибках

Выбранный диапазон

Имя файла D:\Torrents\OneRepublic - Discography (Lossless)\Singles\OneRepublic - Say (All I Need) (2008)\OneRepublic - Say (All I Need).wav

Пиковый уровень 100.0 % Качество диапазона 99.9 % CRC теста 104C5ADB CRC копии 104C5ADB Копирование... OK

Ошибок не произошло

AccurateRip: сводка

Трек 1 нет в базе данныхТрек 2 нет в базе данныхТрек 3 нет в базе данных

Ни одного трека нет в базе AccurateRip

Конец отчёта
Год выпуска дискa: 2008
Производитель дискa / Label: EU / Mosley Music / Interscope Records
Аудио кодек: FLAC
Тип рипа: image+.cue
Битрейт аудио: lossless
Продолжительность: 00:07:34

Трэклист:
01. Say (All I Need) [0:03:51.45]
02. Mercy (Duffy Cover Version - Radio One Live Lounge) [0:03:43.54]
Exact Audio Copy V0.99 prebeta 4 from 23. January 2008

EAC extraction logfile from 18. May 2010, 15:52

OneRepublic / Say (All I Need)

Used drive : TSSTcorpCD/DVDW TS-L632D Adapter: 0 ID: 0

Read mode : SecureUtilize accurate stream : YesDefeat audio cache : YesMake use of C2 pointers : No

Read offset correction : 6Overread into Lead-In and Lead-Out : NoFill up missing offset samples with silence : YesDelete leading and trailing silent blocks : NoNull samples used in CRC calculations : YesUsed interface : Native Win32 interface for Win NT & 2000

Used output format : User Defined EncoderSelected bitrate : 768 kBit/sQuality : HighAdd ID3 tag : NoCommand line compressor : C:\Program Files\Exact Audio Copy\FLAC\FLAC.EXEAdditional command line options : -8 -V %s

TOC of the extracted CD

Track | Start | Length | Start sector | End sector --------------------------------------------------------- 1 | 0:00.00 | 3:51.34 | 0 | 17358 2 | 3:51.34 | 3:43.41 | 17359 | 34124

Range status and errors

Selected range

Filename D:\Torrents\OneRepublic - Discography (Lossless) (by sewerok)\Singles\3. OneRepublic - Say (All I Need) (2008)\2. OneRepublic - Say (All I Need) (2008)\OneRepublic - Say (All I Need).wav

Peak level 98.8 % Range quality 100.0 % Test CRC 4F496C48 Copy CRC 4F496C48 Copy OK

No errors occurred

AccurateRip summary

Track 1 accurately ripped (confidence 1) [B29A2259]Track 2 accurately ripped (confidence 1) [082E79C7]

All tracks accurately ripped

End of status report
Год выпуска дискa: 2010 (05.03.2010 Europe)
Производитель дискa / Label: EU / Mosley Music / Interscope Records
Аудио кодек: FLAC
Тип рипа: image+.cue
Битрейт аудио: lossless
Продолжительность: 00:09:04

Трэклист:
01. All The Right Moves [0:03:59.74]
02. All The Right Moves (Filthy Dukes Remix) [0:05:05.16]
Exact Audio Copy V1.0 beta 3 from 29. August 2011

EAC extraction logfile from 14. May 2012, 20:25

OneRepublic / All The Rights Moves

Used drive : SlimtypeBD E DS4E1S Adapter: 0 ID: 1

Read mode : SecureUtilize accurate stream : YesDefeat audio cache : YesMake use of C2 pointers : No

Read offset correction : 6Overread into Lead-In and Lead-Out : NoFill up missing offset samples with silence : YesDelete leading and trailing silent blocks : NoNull samples used in CRC calculations : YesUsed interface : Native Win32 interface for Win NT & 2000

Used output format : User Defined EncoderSelected bitrate : 768 kBit/sQuality : HighAdd ID3 tag : NoCommand line compressor : C:\Program Files (x86)\Exact Audio Copy\FLAC\FLAC.EXEAdditional command line options : -V -8 -T "Date=%year%" -T "Genre=%genre%" %source%

TOC of the extracted CD

Track | Start | Length | Start sector | End sector --------------------------------------------------------- 1 | 0:00.00 | 3:59.56 | 0 | 17980 2 | 3:59.56 | 5:05.12 | 17981 | 40867

Range status and errors

Selected range

Filename G:\04. OneRepublic - All The Right Moves (2009)\OneRepublic - All The Rights Moves.wav

Peak level 99.9 % Extraction speed 3.1 X Range quality 100.0 % Test CRC 280EB2D4 Copy CRC 280EB2D4 Copy OK

No errors occurred

AccurateRip summary

Track 1 accurately ripped (confidence 5) [3343F6EB] (AR v1)Track 2 accurately ripped (confidence 4) [A0B7D9BF] (AR v1)

All tracks accurately ripped

End of status report

==== Log checksum 1E0100FF2479746084E5C8E455888B7136469908E7CEA4E9A26615937662C9BE ====
Год выпуска дискa: 2009
Производитель дискa / Label: EU / Mosley Music / Interscope Records
Аудио кодек: FLAC
Тип рипа: image+.cue
Битрейт аудио: lossless
Продолжительность: 00:08:03

Трэклист:
01. Secrets [0:03:45.24]
02. Come Home feat. Sara Bareilles [0:04:18.50]
Exact Audio Copy V0.99 prebeta 4 from 23. January 2008

Отчёт EAC об извлечении, выполненном 14. мая 2010, 10:35

OneRepublic / Secrets

Дисковод: TSSTcorpCD/DVDW TS-L632D Adapter: 0 ID: 0

Режим чтения : ДостоверностьИспользование точного потока : ДаОтключение кэша аудио : ДаИспользование указателей C2 : Нет

Коррекция смещения при чтении : 6Способность читать области Lead-in и Lead-out : НетЗаполнение пропущенных сэмплов тишиной : ДаУдаление блоков с тишиной в начале и конце : НетПри вычислениях CRC использовались нулевые сэмплы : ДаИнтерфейс : Встроенный Win32-интерфейс для Win NT/2000

Выходной формат : Пользовательский кодировщикВыбранный битрейт : 768 kBit/sКачество : ВысокийДобавление ID3-тэга : НетУтилита сжатия : C:\Program Files\Exact Audio Copy\FLAC\FLAC.EXEДополнительные параметры : -8 -V %s

TOC извлечённого CD

Трек | Старт | Длительность | Начальный сектор | Конечный сектор --------------------------------------------------------------------- 1 | 0:00.00 | 3:45.18 | 0 | 16892 2 | 3:45.18 | 4:18.38 | 16893 | 36280

Характеристики диапазона извлечения и сообщения об ошибках

Выбранный диапазон

Имя файла D:\Torrents\OneRepublic - Discography (Lossless)\Singles\OneRepublic - Secrets (2009)\OneRepublic - Secrets.wav

Пиковый уровень 98.8 % Качество диапазона 100.0 % CRC теста 59010AA5 CRC копии 59010AA5 Копирование... OK

Ошибок не произошло

AccurateRip: сводка

Трек 1 нет в базе данныхТрек 2 нет в базе данных

Ни одного трека нет в базе AccurateRip

Конец отчёта
Год выпуска дискa: 2010 (18.06.2010 Europe)
Производитель дискa / Label: EU / Mosley Music / Interscope Records
Аудио кодек: FLAC
Тип рипа: image+.cue
Битрейт аудио: lossless
Продолжительность: 00:08:28

Трэклист:
01. Marchin On (Patriot Remix) [0:04:16.45]
02. Marchin On (Timbo Version) (OneRepublic & Timbaland) [0:04:12.42]
Exact Audio Copy V0.99 prebeta 4 from 23. January 2008

EAC extraction logfile from 18. June 2010, 19:47

OneRepublic / Marchin On (Maxi CD)

Used drive : TSSTcorpCD/DVDW TS-L632D Adapter: 0 ID: 0

Read mode : SecureUtilize accurate stream : YesDefeat audio cache : YesMake use of C2 pointers : No

Read offset correction : 6Overread into Lead-In and Lead-Out : NoFill up missing offset samples with silence : YesDelete leading and trailing silent blocks : NoNull samples used in CRC calculations : YesUsed interface : Native Win32 interface for Win NT & 2000

Used output format : User Defined EncoderSelected bitrate : 768 kBit/sQuality : HighAdd ID3 tag : NoCommand line compressor : C:\Program Files\Exact Audio Copy\FLAC\FLAC.EXEAdditional command line options : -8 -V -T "DATE=%y" -T "GENRE=%m" %s

TOC of the extracted CD

Track | Start | Length | Start sector | End sector --------------------------------------------------------- 1 | 0:00.00 | 4:16.34 | 0 | 19233 2 | 4:16.34 | 4:12.32 | 19234 | 38165

Range status and errors

Selected range

Filename D:\Torrents\OneRepublic - Discography (Lossless) (ripped by sewerok)\Singles\6. OneRepublic - Marchin On (2010)\OneRepublic - Marchin On (Maxi CD).wav

Peak level 99.9 % Range quality 100.0 % Test CRC 014837B5 Copy CRC 014837B5 Copy OK

No errors occurred

AccurateRip summary

Track 1 not present in databaseTrack 2 not present in database

None of the tracks are present in the AccurateRip database

End of status report
Год выпуска дискa: 2010 (03.12.2010 Europe)
Производитель дискa / Label: EU / Mosley Music / Interscope Records
Аудио кодек: FLAC
Тип рипа: image+.cue
Битрейт аудио: lossless
Продолжительность: 00:08:17

Трэклист:
01. Good Life (Radio Mix) [0:04:06.26]
02. Good Life (Demolition Crew Remix) [0:04:11.43]
Exact Audio Copy V0.99 prebeta 5 from 4. May 2009

EAC extraction logfile from 10. December 2010, 19:30

OneRepublic / Good Life

Used drive : SlimtypeBD E DS4E1S Adapter: 0 ID: 1

Read mode : SecureUtilize accurate stream : YesDefeat audio cache : YesMake use of C2 pointers : No

Read offset correction : 6Overread into Lead-In and Lead-Out : NoFill up missing offset samples with silence : YesDelete leading and trailing silent blocks : NoNull samples used in CRC calculations : YesUsed interface : Native Win32 interface for Win NT & 2000

Used output format : User Defined EncoderSelected bitrate : 768 kBit/sQuality : HighAdd ID3 tag : NoCommand line compressor : C:\Program Files (x86)\Exact Audio Copy\Flac\flac.exeAdditional command line options : -8 -V -T "DATE=%y" -T "GENRE=%m" %s

TOC of the extracted CD

Track | Start | Length | Start sector | End sector --------------------------------------------------------- 1 | 0:00.00 | 4:06.26 | 0 | 18475 2 | 4:06.26 | 4:11.43 | 18476 | 37343

Range status and errors

Selected range

Filename F:\OneRepublic - Discography (Lossless) (ripped by sewerok)\02. Singles\07. OneRepublic - Good Life (2010)\OneRepublic - Good Life.wav

Peak level 99.9 % Range quality 100.0 % Test CRC 74D81EFE Copy CRC 74D81EFE Copy OK

No errors occurred

AccurateRip summary

Track 1 not present in databaseTrack 2 not present in database

None of the tracks are present in the AccurateRip database

End of status report
Год выпуска дискa: 2012 (14.09.2012 Europe)
Производитель дискa / Label: EU / Mosley Music / Interscope Records
Аудио кодек: FLAC
Тип рипа: image+.cue
Битрейт аудио: lossless
Продолжительность: 00:08:37

Трэклист:
01. Feel Again (Album Version) [0:03:05.62]
02. Feel Again (Tai Remix) [0:05:31.30]
Exact Audio Copy V1.0 beta 3 from 29. August 2011

EAC extraction logfile from 30. September 2012, 20:03

OneRepublic / Feel Again

Used drive : TSSTcorpCD/DVDW TS-L632D Adapter: 0 ID: 0

Read mode : SecureUtilize accurate stream : YesDefeat audio cache : YesMake use of C2 pointers : No

Read offset correction : 6Overread into Lead-In and Lead-Out : NoFill up missing offset samples with silence : YesDelete leading and trailing silent blocks : NoNull samples used in CRC calculations : YesUsed interface : Native Win32 interface for Win NT & 2000

Used output format : User Defined EncoderSelected bitrate : 896 kBit/sQuality : HighAdd ID3 tag : NoCommand line compressor : C:\Program Files (x86)\Exact Audio Copy\Flac\flac.exeAdditional command line options : -V -8 -T "Date=%year%" -T "Genre=%genre%" %source%

TOC of the extracted CD

Track | Start | Length | Start sector | End sector --------------------------------------------------------- 1 | 0:00.00 | 3:05.62 | 0 | 13936 2 | 3:05.62 | 5:31.30 | 13937 | 38791

Range status and errors

Selected range

Filename G:\08. OneRepublic - Feel Again (2012)\OneRepublic - Feel Again.wav

Peak level 99.7 % Extraction speed 1.2 X Range quality 100.0 % Test CRC 07AF8E07 Copy CRC 07AF8E07 Copy OK

No errors occurred

AccurateRip summary

Track 1 not present in databaseTrack 2 not present in database

None of the tracks are present in the AccurateRip database

End of status report

==== Log checksum 9E4BE8F4DCB13C55BA93AB122D3865276D85574A82781FD055C2038EA6B16FF9 ====
Promos
Год выпуска дискa: 2007
Производитель дискa / Label: EU / Mosley Music / Interscope Records
Аудио кодек: FLAC
Тип рипа: image+.cue
Битрейт аудио: lossless
Продолжительность: 00:06:15

Трэклист:
01. Apologize (Album Version) [0:03:07.42]
02. Apologize (Instrumental) [0:03:07.72]
Exact Audio Copy V1.0 beta 3 from 29. August 2011

EAC extraction logfile from 14. May 2012, 20:47

Timbaland presents OneRepublic / Apologize

Used drive : SlimtypeBD E DS4E1S Adapter: 0 ID: 1

Read mode : SecureUtilize accurate stream : YesDefeat audio cache : YesMake use of C2 pointers : No

Read offset correction : 6Overread into Lead-In and Lead-Out : NoFill up missing offset samples with silence : YesDelete leading and trailing silent blocks : NoNull samples used in CRC calculations : YesUsed interface : Native Win32 interface for Win NT & 2000

Used output format : User Defined EncoderSelected bitrate : 768 kBit/sQuality : HighAdd ID3 tag : NoCommand line compressor : C:\Program Files (x86)\Exact Audio Copy\FLAC\FLAC.EXEAdditional command line options : -V -8 -T "Date=%year%" -T "Genre=%genre%" %source%

TOC of the extracted CD

Track | Start | Length | Start sector | End sector --------------------------------------------------------- 1 | 0:00.00 | 3:07.42 | 0 | 14066 2 | 3:07.42 | 3:07.72 | 14067 | 28163

Range status and errors

Selected range

Filename G:\01. Timbaland presents OneRepublic - Apologize [Promo CD] (2007)\Timbaland presents OneRepublic - Apologize.wav

Peak level 100.0 % Extraction speed 2.6 X Range quality 99.9 % Test CRC 44A3D6DB Copy CRC 44A3D6DB Copy OK

No errors occurred

AccurateRip summary

Track 1 accurately ripped (confidence 1) [C79BCA62] (AR v1)Track 2 accurately ripped (confidence 1) [3B40EBA8] (AR v1)

All tracks accurately ripped

End of status report

==== Log checksum C4791C226BFF7EA96BFF1C91CDB1157C7BA4D1225CB6A49439ACB88E4BFD0C3C ====
Год выпуска дискa: 2008
Производитель дискa / Label: UK / Mosley Music / Interscope Records
Аудио кодек: FLAC
Тип рипа: image+.cue
Битрейт аудио: lossless
Продолжительность: 00:03:27

Трэклист:
01. Mercy (Radio Mix) [0:03:27.11]
Exact Audio Copy V0.99 prebeta 5 from 4. May 2009

EAC extraction logfile from 23. July 2010, 20:31

OneRepublic / Mercy (Promo CD)

Used drive : SlimtypeBD E DS4E1S Adapter: 0 ID: 1

Read mode : SecureUtilize accurate stream : YesDefeat audio cache : YesMake use of C2 pointers : No

Read offset correction : 6Overread into Lead-In and Lead-Out : NoFill up missing offset samples with silence : YesDelete leading and trailing silent blocks : NoNull samples used in CRC calculations : YesUsed interface : Native Win32 interface for Win NT & 2000

Used output format : User Defined EncoderSelected bitrate : 768 kBit/sQuality : HighAdd ID3 tag : NoCommand line compressor : C:\Program Files (x86)\Exact Audio Copy\Flac\flac.exeAdditional command line options : -8 -V -T "DATE=%y" -T "GENRE=%m" %s

TOC of the extracted CD

Track | Start | Length | Start sector | End sector --------------------------------------------------------- 1 | 0:00.00 | 3:27.11 | 0 | 15535

Range status and errors

Selected range

Filename C:\Rip's\OneRepublic - Discography (Lossless) (ripped by sewerok)\Promo\OneRepublic - Mercy (2008)\OneRepublic - Mercy (Promo CD).wav

Peak level 97.3 % Range quality 100.0 % Test CRC 737541AF Copy CRC 737541AF Copy OK

No errors occurred

AccurateRip summary

Track 1 accurately ripped (confidence 1) [0C91FC6B]

All tracks accurately ripped

End of status report
Год выпуска дискa: 2008
Производитель дискa / Label: EU / Mosley Music / Interscope Records
Аудио кодек: FLAC
Тип рипа: image+.cue
Битрейт аудио: lossless
Продолжительность: 00:03:51

Трэклист:
01. Say (All I Need) [0:03:50.58]
Exact Audio Copy V1.0 beta 3 from 29. August 2011

EAC extraction logfile from 16. January 2012, 21:42

OneRepublic / Say (All I Need) (Promo CD)

Used drive : SlimtypeBD E DS4E1S Adapter: 0 ID: 1

Read mode : SecureUtilize accurate stream : YesDefeat audio cache : YesMake use of C2 pointers : No

Read offset correction : 6Overread into Lead-In and Lead-Out : NoFill up missing offset samples with silence : YesDelete leading and trailing silent blocks : NoNull samples used in CRC calculations : YesUsed interface : Native Win32 interface for Win NT & 2000

Used output format : User Defined EncoderSelected bitrate : 768 kBit/sQuality : HighAdd ID3 tag : NoCommand line compressor : C:\Program Files (x86)\Exact Audio Copy\Flac\flac.exeAdditional command line options : -V -8 -T "Date=%year%" -T "Genre=%genre%" %source%

TOC of the extracted CD

Track | Start | Length | Start sector | End sector --------------------------------------------------------- 1 | 0:00.00 | 3:50.58 | 0 | 17307

Range status and errors

Selected range

Filename F:\OneRepublic - Say (All I Need) [Promo CD] (2008)\OneRepublic - Say (All I Need) (Promo CD).wav

Peak level 98.8 % Extraction speed 0.9 X Range quality 99.9 % Test CRC E53D49E3 Copy CRC E53D49E3 Copy OK

No errors occurred

AccurateRip summary

Track 1 cannot be verified as accurate (confidence 1) [0A93AF5A], AccurateRip returned [431CA3AC] (AR v2)

No tracks could be verified as accurateYou may have a different pressing from the one(s) in the database

End of status report

==== Log checksum 8F6B455CAD689879B22E19036654C8D7A4BA8C193FF02D23339C8AC0459794D8 ====


Трекер:  [ 01-Окт-2012 20:26 ]

  

Скачать .torrent

Размер .torrent файла 31 KB


Размер: 1.64 GB
Хэш (hash) релиза: 1c9dcd05558ddefbce43556bf55e6a498acb4ec5

Еще никто не оставлял запись к записи скачать торрент OneRepublic - Discography 2007 - 2012 . Будь первым!

!Обратная связь