Скачать через торрент музыку The Man From RavCon - Дискография бесплатно без регистрации torrent

Если у вас наблюдаются проблемы со скриншотами, переходом по ссылками, скачиванием торрентов - проблемы в блокировщике рекламы AdBlock. #хорошегоДня!


Статистика раздачи
Размер:  1.1 GB   |    Зарегистрирован:  4 года 10 месяцев   |    .torrent скачан:  34 раза   |   
Раздают:  1  
   
Загрузка...
 
Автор Сообщение

_N_

avatar _N_


The Man From RavCon

Дискография (4 Альбома)



Жанр: Surf, Spaghetti Western, Spy-Horror
Страна-производитель диска: USA
Год издания: 2010-2012
Издатель (лейбл): The Man From RavCon
Аудиокодек: FLAC (*.flac)
Тип рипа: image+.cue
Битрейт аудио: lossless
Источник (релизер): ©СЁРФ-Маrаtones aka izia1956
Наличие сканов в содержимом раздачи: да
Треклист:

01. Hammerhead (3:06)
02. Moonlight Mountain (2:28)
03. The Ferguson (4:05)
04. Atalaya (4:02)
05. Flip Flop (2:30)
06. Dead Man's Cove (3:20)
07. Beyond the Dunes (2:56)
08. Organ Grinder (3:06)
09. Mosie (2:34)
10. Once Upon A Time In the West (2:59)
11. Everything Is Golden (7:14)
Exact Audio Copy V0.99 prebeta 5 from 4. May 2009

Отчёт EAC об извлечении, выполненном 23. сентября 2012, 15:35

The Man From RavCon / Everything Is Golden

Дисковод: PLEXTOR DVDR PX-880SA Adapter: 1 ID: 0

Режим чтения : ДостоверностьИспользование точного потока : ДаОтключение кэша аудио : ДаИспользование указателей C2 : Нет

Коррекция смещения при чтении : 6Способность читать области Lead-in и Lead-out : НетЗаполнение пропущенных сэмплов тишиной : ДаУдаление блоков с тишиной в начале и конце : НетПри вычислениях CRC использовались нулевые сэмплы : ДаИнтерфейс : Установленный внешний ASPI-интерфейс

Выходной формат : Пользовательский кодировщикВыбранный битрейт : 1024 kBit/sКачество : ВысокийДобавление ID3-тэга : НетУтилита сжатия : C:\Program Files\Exact Audio Copy\FLAC\FLAC.EXEДополнительные параметры : -6 -V -T "ARTIST=%a" -T "TITLE=%t" -T "ALBUM=%g" -T "DATE=%y" -T "TRACKNUMBER=%n" -T "GENRE=%m" -T "COMMENT=%e" %s -o %d

TOC извлечённого CD

Трек | Старт | Длительность | Начальный сектор | Конечный сектор --------------------------------------------------------------------- 1 | 0:00.00 | 3:06.00 | 0 | 13949 2 | 3:06.00 | 2:28.22 | 13950 | 25071 3 | 5:34.22 | 4:05.00 | 25072 | 43446 4 | 9:39.22 | 4:02.00 | 43447 | 61596 5 | 13:41.22 | 2:30.36 | 61597 | 72882 6 | 16:11.58 | 3:19.51 | 72883 | 87858 7 | 19:31.34 | 2:56.35 | 87859 | 101093 8 | 22:27.69 | 3:05.61 | 101094 | 115029 9 | 25:33.55 | 2:33.52 | 115030 | 126556 10 | 28:07.32 | 2:58.49 | 126557 | 139955 11 | 31:06.06 | 7:13.56 | 139956 | 172486

Характеристики диапазона извлечения и сообщения об ошибках

Выбранный диапазон

Имя файла F:\BitComet\The Man from Ravcon (flac)\2010 - Everything Is Golden\The Man From RavCon - Everything Is Golden.wav

Пиковый уровень 98.8 % Качество диапазона 100.0 % CRC теста F545E844 CRC копии F545E844 Копирование... OK

Ошибок не произошло

AccurateRip: сводка

Трек 1 нет в базе данныхТрек 2 нет в базе данныхТрек 3 нет в базе данныхТрек 4 нет в базе данныхТрек 5 нет в базе данныхТрек 6 нет в базе данныхТрек 7 нет в базе данныхТрек 8 нет в базе данныхТрек 9 нет в базе данныхТрек 10 нет в базе данныхТрек 11 нет в базе данных

Ни одного трека нет в базе AccurateRip

Конец отчёта
01. High Roller (2:44)
02. The Ballad of Lil' Hoss (4:49)
03. Omns (Hello Zombie) (3:05)
04. Noon (4:01)
05. The Word Is Fuzz (3:18)
06. All the Gold (3:48)
07. Slow Poke (2:22)
08. Shadow (2:04)
09. Wrangle (2:22)
10. Pimpin' for Homie (4:57)
11. Procession (4:18)
12. Abbreviated Pimp (0:29)
13. Space Cab (4:26)
14. Reflection (3:33)
15. Night Sky (2:52)
16. Spring (4:41)
Exact Audio Copy V0.99 prebeta 5 from 4. May 2009

Отчёт EAC об извлечении, выполненном 23. сентября 2012, 14:10

The Man from Ravcon / Zombie Pimp Cowboys from Outer Space

Дисковод: PLEXTOR DVDR PX-880SA Adapter: 1 ID: 0

Режим чтения : ДостоверностьИспользование точного потока : ДаОтключение кэша аудио : ДаИспользование указателей C2 : Нет

Коррекция смещения при чтении : 6Способность читать области Lead-in и Lead-out : НетЗаполнение пропущенных сэмплов тишиной : ДаУдаление блоков с тишиной в начале и конце : НетПри вычислениях CRC использовались нулевые сэмплы : ДаИнтерфейс : Установленный внешний ASPI-интерфейс

Выходной формат : Пользовательский кодировщикВыбранный битрейт : 1024 kBit/sКачество : ВысокийДобавление ID3-тэга : НетУтилита сжатия : C:\Program Files\Exact Audio Copy\FLAC\FLAC.EXEДополнительные параметры : -6 -V -T "ARTIST=%a" -T "TITLE=%t" -T "ALBUM=%g" -T "DATE=%y" -T "TRACKNUMBER=%n" -T "GENRE=%m" -T "COMMENT=%e" %s -o %d

TOC извлечённого CD

Трек | Старт | Длительность | Начальный сектор | Конечный сектор --------------------------------------------------------------------- 1 | 0:00.00 | 2:44.61 | 0 | 12360 2 | 2:44.61 | 4:49.25 | 12361 | 34060 3 | 7:34.11 | 3:05.05 | 34061 | 47940 4 | 10:39.16 | 4:01.46 | 47941 | 66061 5 | 14:40.62 | 3:18.56 | 66062 | 80967 6 | 17:59.43 | 3:48.68 | 80968 | 98135 7 | 21:48.36 | 2:22.61 | 98136 | 108846 8 | 24:11.22 | 2:04.19 | 108847 | 118165 9 | 26:15.41 | 2:22.02 | 118166 | 128817 10 | 28:37.43 | 4:57.49 | 128818 | 151141 11 | 33:35.17 | 4:18.01 | 151142 | 170492 12 | 37:53.18 | 0:29.25 | 170493 | 172692 13 | 38:22.43 | 4:26.57 | 172693 | 192699 14 | 42:49.25 | 3:33.28 | 192700 | 208702 15 | 46:22.53 | 2:52.10 | 208703 | 221612 16 | 49:14.63 | 4:41.41 | 221613 | 242728

Характеристики диапазона извлечения и сообщения об ошибках

Выбранный диапазон

Имя файла F:\BitComet\The Man from Ravcon (flac)\2010 - Zombie Pimp Cowboys from Outer Space\The Man from Ravcon - Zombie Pimp Cowboys from Outer Space.wav

Пиковый уровень 100.0 % Качество диапазона 100.0 % CRC теста ACE99B09 CRC копии ACE99B09 Копирование... OK

Ошибок не произошло

AccurateRip: сводка

Трек 1 нет в базе данныхТрек 2 нет в базе данныхТрек 3 нет в базе данныхТрек 4 нет в базе данныхТрек 5 нет в базе данныхТрек 6 нет в базе данныхТрек 7 нет в базе данныхТрек 8 нет в базе данныхТрек 9 нет в базе данныхТрек 10 нет в базе данныхТрек 11 нет в базе данныхТрек 12 нет в базе данныхТрек 13 нет в базе данныхТрек 14 нет в базе данныхТрек 15 нет в базе данныхТрек 16 нет в базе данных

Ни одного трека нет в базе AccurateRip

Конец отчёта
01. Wichita (3:13)
02. You'll Never Take Me Alive (5:48)
03. The Valley of Death (4:01)
04. A Bad Man With Good Intentions (3:39)
05. Pushing Up Daisies (3:06)
06. Spittoon Saloon (1:18)
07. Three Days From Durango (3:13)
08. No Rest For the Wicked (5:29)
09. Indigo (3:33)
10. The Ledge (4:33)
11. Utah (4:06)
Exact Audio Copy V0.99 prebeta 5 from 4. May 2009

Отчёт EAC об извлечении, выполненном 23. сентября 2012, 19:12

The Man From RavCon / Rides Again!

Дисковод: PLEXTOR DVDR PX-880SA Adapter: 1 ID: 0

Режим чтения : ДостоверностьИспользование точного потока : ДаОтключение кэша аудио : ДаИспользование указателей C2 : Нет

Коррекция смещения при чтении : 6Способность читать области Lead-in и Lead-out : НетЗаполнение пропущенных сэмплов тишиной : ДаУдаление блоков с тишиной в начале и конце : НетПри вычислениях CRC использовались нулевые сэмплы : ДаИнтерфейс : Установленный внешний ASPI-интерфейс

Выходной формат : Пользовательский кодировщикВыбранный битрейт : 1024 kBit/sКачество : ВысокийДобавление ID3-тэга : НетУтилита сжатия : C:\Program Files\Exact Audio Copy\FLAC\FLAC.EXEДополнительные параметры : -6 -V -T "ARTIST=%a" -T "TITLE=%t" -T "ALBUM=%g" -T "DATE=%y" -T "TRACKNUMBER=%n" -T "GENRE=%m" -T "COMMENT=%e" %s -o %d

TOC извлечённого CD

Трек | Старт | Длительность | Начальный сектор | Конечный сектор --------------------------------------------------------------------- 1 | 0:00.00 | 3:12.48 | 0 | 14447 2 | 3:12.48 | 5:48.03 | 14448 | 40550 3 | 9:00.51 | 4:00.73 | 40551 | 58623 4 | 13:01.49 | 3:38.71 | 58624 | 75044 5 | 16:40.45 | 3:05.65 | 75045 | 88984 6 | 19:46.35 | 1:18.10 | 88985 | 94844 7 | 21:04.45 | 3:13.17 | 94845 | 109336 8 | 24:17.62 | 5:28.56 | 109337 | 133992 9 | 29:46.43 | 3:32.72 | 133993 | 149964 10 | 33:19.40 | 4:32.56 | 149965 | 170420 11 | 37:52.21 | 4:05.50 | 170421 | 188845

Характеристики диапазона извлечения и сообщения об ошибках

Выбранный диапазон

Имя файла F:\BitComet\The Man from Ravcon (flac)\2011 - Rides Again!\The Man From RavCon - Rides Again!.wav

Пиковый уровень 100.0 % Качество диапазона 100.0 % CRC теста 1CD0239A CRC копии 1CD0239A Копирование... OK

Ошибок не произошло

AccurateRip: сводка

Трек 1 нет в базе данныхТрек 2 нет в базе данныхТрек 3 нет в базе данныхТрек 4 нет в базе данныхТрек 5 нет в базе данныхТрек 6 нет в базе данныхТрек 7 нет в базе данныхТрек 8 нет в базе данныхТрек 9 нет в базе данныхТрек 10 нет в базе данныхТрек 11 нет в базе данных

Ни одного трека нет в базе AccurateRip

Конец отчёта
01. The Passenger (3:42)
02. Above the Clouds (3:00)
03. The Jetsetters (Beautiful Day) (2:50)
04. Speakeasy (1:49)
05. The Bishop (4:16)
06. The Charmer (4:22)
07. The Traveler (3:24)
08. The Station (3:48)
09. Addio, Amore Mio (2:44)
10. Escape (3:14)
11. Home (3:37)
Exact Audio Copy V0.99 prebeta 5 from 4. May 2009

Отчёт EAC об извлечении, выполненном 23. сентября 2012, 14:54

The Man from Ravcon / The Traveler

Дисковод: PLEXTOR DVDR PX-880SA Adapter: 1 ID: 0

Режим чтения : ДостоверностьИспользование точного потока : ДаОтключение кэша аудио : ДаИспользование указателей C2 : Нет

Коррекция смещения при чтении : 6Способность читать области Lead-in и Lead-out : НетЗаполнение пропущенных сэмплов тишиной : ДаУдаление блоков с тишиной в начале и конце : НетПри вычислениях CRC использовались нулевые сэмплы : ДаИнтерфейс : Установленный внешний ASPI-интерфейс

Выходной формат : Пользовательский кодировщикВыбранный битрейт : 1024 kBit/sКачество : ВысокийДобавление ID3-тэга : НетУтилита сжатия : C:\Program Files\Exact Audio Copy\FLAC\FLAC.EXEДополнительные параметры : -6 -V -T "ARTIST=%a" -T "TITLE=%t" -T "ALBUM=%g" -T "DATE=%y" -T "TRACKNUMBER=%n" -T "GENRE=%m" -T "COMMENT=%e" %s -o %d

TOC извлечённого CD

Трек | Старт | Длительность | Начальный сектор | Конечный сектор --------------------------------------------------------------------- 1 | 0:00.00 | 3:42.18 | 0 | 16667 2 | 3:42.18 | 2:59.44 | 16668 | 30136 3 | 6:41.62 | 2:49.64 | 30137 | 42875 4 | 9:31.51 | 1:49.27 | 42876 | 51077 5 | 11:21.03 | 4:15.60 | 51078 | 70262 6 | 15:36.63 | 4:22.26 | 70263 | 89938 7 | 19:59.14 | 3:23.56 | 89939 | 105219 8 | 23:22.70 | 3:47.47 | 105220 | 122291 9 | 27:10.42 | 2:43.52 | 122292 | 134568 10 | 29:54.19 | 3:14.21 | 134569 | 149139 11 | 33:08.40 | 3:36.47 | 149140 | 165386

Характеристики диапазона извлечения и сообщения об ошибках

Выбранный диапазон

Имя файла F:\BitComet\The Man from Ravcon (flac)\2012 - The Traveler\The Man from Ravcon - The Traveler.wav

Пиковый уровень 96.7 % Качество диапазона 100.0 % CRC теста F9AA4CAD CRC копии F9AA4CAD Копирование... OK

Ошибок не произошло

AccurateRip: сводка

Трек 1 нет в базе данныхТрек 2 нет в базе данныхТрек 3 нет в базе данныхТрек 4 нет в базе данныхТрек 5 нет в базе данныхТрек 6 нет в базе данныхТрек 7 нет в базе данныхТрек 8 нет в базе данныхТрек 9 нет в базе данныхТрек 10 нет в базе данныхТрек 11 нет в базе данных

Ни одного трека нет в базе AccurateRip

Конец отчёта


Трекер:  [ 01-Окт-2012 20:26 ]

  

Скачать .torrent

Размер .torrent файла 14 KB


Размер: 1.1 GB
Хэш (hash) релиза: fa4379ab4cd98508abc806d6e72a34c785650670

Торренты, похожие на The Man From RavCon - Дискография скачать торрент

Форум Название Автор Размер S L Добавлен
Rосk | Mеtаl | Аltеrnаtivе, Рunk, Indереndеnt (mр3) ·· (Surf, Spaghetti Western, Spy-Horror, Progressive Rock) The Man From RavCon - Дискография (6 Альбомов) - 2010-2015, MP3, 320 kbps Galfimbul 809418387772 MB 0 0 1428171185

21:13

4-Апр-15

Зарубежный Rock ·· (Surf, Spaghetti Western, Spy-Horror) The Man From RavCon - Дискография (4 Альбома) - 2010-2012, MP3, 320 kbps _N_ 506772005483 MB 0 0 1349113020

20:37

1-Окт-12

Еще никто не оставлял запись к записи скачать торрент The Man From RavCon - Дискография . Будь первым!

!Обратная связь