Скачать через торрент музыку UK - UK, Danger Money - 1978,1979, FLAC бесплатно без регистрации torrent

Если у вас наблюдаются проблемы со скриншотами, переходом по ссылками, скачиванием торрентов - проблемы в блокировщике рекламы AdBlock. #хорошегоДня!


Статистика раздачи
Размер:  546 MB   |    Зарегистрирован:  5 лет 1 месяц   |    .torrent скачан:  13 раз   |   
Раздают:  1  
   
Загрузка...
 
Автор Сообщение

_N_

avatar _N_


UK / UK, Danger Money

Жанр: Progressive
Страна-производитель диска: Bul
Год издания: 1978,1979
Издатель (лейбл): пират
Страна: UK
Аудиокодек: FLAC (*.flac)
Тип рипа: image+.cue
Битрейт аудио: lossless
Продолжительность: 46'30", 42'22"
Источник (релизер): мои
Наличие сканов в содержимом раздачи: да
Треклист:
Треклист:
UK
01 In the Dead of Night
02 By the Light of Day
03 Presto Vivace and Reprise
04 Thirty Years
05 Alaska
06 Time to Kill
07 Nevermore
08 Mental Medication
Danger money
01 Danger Money
02 Rendezvous 6:02
03 The Only Thing She Needs
04 Caesar's Palace Blues
05 Nothing to Lose
06 Carrying No Cross
UKExact Audio Copy V1.0 beta 3 from 29. August 2011

Отчёт EAC об извлечении, выполненном 29. сентября 2012, 21:39

U.K. / U.K.

Дисковод: TSSTcorpCD/DVDW TS-L632D Adapter: 2 ID: 0

Режим чтения : ДостоверностьИспользование точного потока : ДаОтключение кэша аудио : ДаИспользование указателей C2 : Нет

Коррекция смещения при чтении : 6Способность читать области Lead-in и Lead-out : НетЗаполнение пропущенных сэмплов тишиной : ДаУдаление блоков с тишиной в начале и конце : НетПри вычислениях CRC использовались нулевые сэмплы : ДаИнтерфейс : Встроенный Win32-интерфейс для Win NT/2000

Выходной формат : Пользовательский кодировщикВыбранный битрейт : 768 kBit/sКачество : ВысокийДобавление ID3-тега : НетУтилита сжатия : C:\Program Files\Exact Audio Copy\FLAC\FLAC.EXEДополнительные параметры : -V -8 -T "Date=%year%" -T "Genre=%genre%" %source%

TOC извлечённого CD

Трек | Старт | Длительность | Начальный сектор | Конечный сектор --------------------------------------------------------------------- 1 | 0:00.00 | 5:34.08 | 0 | 25057 2 | 5:34.08 | 4:27.27 | 25058 | 45109 3 | 10:01.35 | 3:08.23 | 45110 | 59232 4 | 13:09.58 | 8:08.05 | 59233 | 95837 5 | 21:17.63 | 4:39.57 | 95838 | 116819 6 | 25:57.45 | 4:56.60 | 116820 | 139079 7 | 30:54.30 | 8:11.58 | 139080 | 175962 8 | 39:06.13 | 7:24.25 | 175963 | 209287

Характеристики диапазона извлечения и сообщения об ошибках

Выбранный диапазон

Имя файла D:\Музыка\рип\U.K. - U.K..wav

Пиковый уровень 97.7 % Скорость извлечения 4.0 X Качество диапазона 100.0 % CRC теста 2D528BD4 CRC копии 2D528BD4 Копирование... OK

Ошибок не произошло

AccurateRip: сводка

Трек 1 точность не определена (достоверность 2) [7A8C56D0], AccurateRip вернул [83CA830E] (AR v2)Трек 2 точность не определена (достоверность 2) [596D9DB6], AccurateRip вернул [180263B5] (AR v2)Трек 3 точность не определена (достоверность 2) [D913E02E], AccurateRip вернул [39C3209F] (AR v2)Трек 4 точность не определена (достоверность 2) [CC6C11A9], AccurateRip вернул [5F7D2E0D] (AR v2)Трек 5 точность не определена (достоверность 2) [AAB90F62], AccurateRip вернул [5B011D44] (AR v2)Трек 6 точность не определена (достоверность 2) [6933B76E], AccurateRip вернул [E34749BA] (AR v2)Трек 7 точность не определена (достоверность 2) [15C39410], AccurateRip вернул [C3E3BCB1] (AR v2)Трек 8 точность не определена (достоверность 2) [8733F8DC], AccurateRip вернул [563B3708] (AR v2)

Ни один трек не прошёл проверки на точностьВ вашей базе может быть иной вариант штамповки диска

Конец отчёта

==== Контрольная сумма отчёта C74F960935100437BB7077F42449FB38C6DBC1A0A8E1F0603CFC514E8134728F ====

Danger moneyExact Audio Copy V1.0 beta 3 from 29. August 2011

Отчёт EAC об извлечении, выполненном 29. сентября 2012, 22:10

U.K. / Danger Money

Дисковод: TSSTcorpCD/DVDW TS-L632D Adapter: 2 ID: 0

Режим чтения : ДостоверностьИспользование точного потока : ДаОтключение кэша аудио : ДаИспользование указателей C2 : Нет

Коррекция смещения при чтении : 6Способность читать области Lead-in и Lead-out : НетЗаполнение пропущенных сэмплов тишиной : ДаУдаление блоков с тишиной в начале и конце : НетПри вычислениях CRC использовались нулевые сэмплы : ДаИнтерфейс : Встроенный Win32-интерфейс для Win NT/2000

Выходной формат : Пользовательский кодировщикВыбранный битрейт : 768 kBit/sКачество : ВысокийДобавление ID3-тега : НетУтилита сжатия : C:\Program Files\Exact Audio Copy\FLAC\FLAC.EXEДополнительные параметры : -V -8 -T "Date=%year%" -T "Genre=%genre%" %source%

TOC извлечённого CD

Трек | Старт | Длительность | Начальный сектор | Конечный сектор --------------------------------------------------------------------- 1 | 0:00.00 | 8:14.65 | 0 | 37114 2 | 8:14.65 | 5:00.05 | 37115 | 59619 3 | 13:14.70 | 7:54.50 | 59620 | 95219 4 | 21:09.45 | 4:44.40 | 95220 | 116559 5 | 25:54.10 | 3:57.70 | 116560 | 134404 6 | 29:52.05 | 12:19.70 | 134405 | 189899

Характеристики диапазона извлечения и сообщения об ошибках

Выбранный диапазон

Имя файла D:\Музыка\рип\U.K. - Danger Money.wav

Пиковый уровень 100.0 % Скорость извлечения 4.1 X Качество диапазона 99.9 % CRC теста 4E361D2D CRC копии 4E361D2D Копирование... OK

Ошибок не произошло

AccurateRip: сводка

Трек 1 : извлечено точно (доверие 1) [6237B61F] (AR v1)Трек 2 : извлечено точно (доверие 1) [E384B0F3] (AR v1)Трек 3 : извлечено точно (доверие 1) [CFF76877] (AR v1)Трек 4 : извлечено точно (доверие 1) [5A38D967] (AR v1)Трек 5 : извлечено точно (доверие 1) [A59CEB24] (AR v1)Трек 6 : извлечено точно (доверие 1) [963261D2] (AR v1)

Все треки извлечены точно

Конец отчёта

==== Контрольная сумма отчёта 8AFA5668D5A7363872BF232E68A99A12F9E8053ECC2B00F9D37C05D207A8F31B ====
Доп. информация: Диски приобретены на Горбушке. Болгария, наверное!
Eddie Jobson - electric violin, keyboards, electronics
John Wetton - voice, bass
Allan Holdsworth - guitars
Bill Bruford - kit drums, percussion


Трекер:  [ 01-Окт-2012 20:26 ]

  

Скачать .torrent

Размер .torrent файла 11 KB


Размер: 546 MB
Хэш (hash) релиза: e674ab068b5dbe5d4cb65982915a9389585baec6

Еще никто не оставлял запись к записи скачать торрент UK - UK, Danger Money - 1978,1979, FLAC . Будь первым!

!Обратная связь