Скачать через торрент музыку Franco Battiato - Sulle Corde di Aries бесплатно без регистрации torrent

Если у вас наблюдаются проблемы со скриншотами, переходом по ссылками, скачиванием торрентов - проблемы в блокировщике рекламы AdBlock. #хорошегоДня!


Статистика раздачи
Размер:  171 MB   |    Зарегистрирован:  4 года 10 месяцев   |    .torrent скачан:  12 раз   |   
Раздают:  1  
   
Загрузка...
 
Автор Сообщение

_N_

avatar _N_


Franco Battiato / Sulle Corde di Aries

Жанр: Avant-garde/Progressive Electronic
Страна-производитель диска: Италия
Год издания: 1998
Издатель (лейбл): BMG Ricordi S.p.A.
Номер по каталогу: 74321585552
Страна: Италия
Аудиокодек: FLAC (*.flac)
Тип рипа: image+.cue
Битрейт аудио: lossless
Источник (релизер): terr83
Наличие сканов в содержимом раздачи: да
Треклист:
1. Sequenze e frequenze 16:22
2. Aries 5:27
3. Aria di rivoluzione 5:02
4. Da Oriente ad Occidente 6:33
Exact Audio Copy V0.99 prebeta 4 from 23. January 2008

EAC extraction logfile from 3. March 2012, 21:32

Franco Battiato / Sulle Corde di Aries

Used drive : Optiarc DVD RW AD-7170S Adapter: 1 ID: 0

Read mode : SecureUtilize accurate stream : YesDefeat audio cache : YesMake use of C2 pointers : No

Read offset correction : 48Overread into Lead-In and Lead-Out : NoFill up missing offset samples with silence : YesDelete leading and trailing silent blocks : NoNull samples used in CRC calculations : YesUsed interface : Native Win32 interface for Win NT & 2000

Used output format : User Defined EncoderSelected bitrate : 128 kBit/sQuality : HighAdd ID3 tag : NoCommand line compressor : G:\Program Files\Exact Audio Copy\Flac\flac.exeAdditional command line options : -8 -V %s

TOC of the extracted CD

Track | Start | Length | Start sector | End sector --------------------------------------------------------- 1 | 0:00.00 | 16:22.00 | 0 | 73649 2 | 16:22.00 | 5:27.00 | 73650 | 98174 3 | 21:49.00 | 5:02.00 | 98175 | 120824 4 | 26:51.00 | 6:33.00 | 120825 | 150299

Range status and errors

Selected range

Filename D:\terr83\Franco Battiato - Sulle Corde di Aries 1974\CDImage.wav

Peak level 97.7 % Range quality 99.9 % Test CRC FC747E6A Copy CRC FC747E6A Copy OK

No errors occurred

AccurateRip summary

Track 1 accurately ripped (confidence 3) [DAD144B0]Track 2 accurately ripped (confidence 3) [1023EDEF]Track 3 accurately ripped (confidence 3) [F4495B6D]Track 4 accurately ripped (confidence 3) [54DDBE9D]

All tracks accurately ripped

End of status report
AUDIOCHECKER v2.0 beta (build 457) - by Dester - <a href="mailto:opdester@freemail.hu" class="postLink">opdester@freemail.hu</a>~~~~~~~~~~~~~~~~~~~~~~~~~~~~~~~~~~

Started at: суббота, 03. 03. 2012. - 22:32.331 file found

1 -===- D:\terr83\Franco Battiato - Sulle Corde di Aries 1973\CDImage.flac Extracted successfully Conclusion: this track is CDDA with probability 99% Tempfile successfully deleted.

Finished at: суббота, 03. 03. 2012. - 22:35.47 (operation time: 0:03.13)


Трекер:  [ 01-Окт-2012 20:27 ]

  

Скачать .torrent

Размер .torrent файла 14 KB


Размер: 171 MB
Хэш (hash) релиза: fc4d06e407a5a3170cd74427d083a39ce5df8b16

Еще никто не оставлял запись к записи скачать торрент Franco Battiato - Sulle Corde di Aries . Будь первым!

!Обратная связь