Скачать через торрент музыку Franco Battiato - Clic бесплатно без регистрации torrent

Если у вас наблюдаются проблемы со скриншотами, переходом по ссылками, скачиванием торрентов - проблемы в блокировщике рекламы AdBlock. #хорошегоДня!


Статистика раздачи
Размер:  143 MB   |    Зарегистрирован:  5 лет 1 месяц   |    .torrent скачан:  5 раз   |   
Раздают:  1  
   
Загрузка...
 
Автор Сообщение

_N_

avatar _N_


Franco Battiato / Clic

Жанр: Avant-garde/Progressive Electronic
Страна-производитель диска: Италия
Год издания: 1998
Издатель (лейбл): BMG Ricordi S.p.A.
Номер по каталогу: 74321585512
Страна: Италия
Аудиокодек: FLAC (*.flac)
Тип рипа: image+.cue
Битрейт аудио: lossless
Источник (релизер): terr83
Наличие сканов в содержимом раздачи: да
Треклист:
1. I Cancelli Della Memoria 6:11
2. No U Turn 4:53
3. Il Mercato Degli Dei 4:30
4. Rien Ne Va Plus 2:44
5. Propiedad Prohibida 5:22
6. Nel Cantiere Di Un'infanzia 4:33
7. Ethika Fon Ethica 3:52
Exact Audio Copy V0.99 prebeta 4 from 23. January 2008

EAC extraction logfile from 3. March 2012, 22:57

Franco Battiato / Clic

Used drive : Optiarc DVD RW AD-7170S Adapter: 1 ID: 0

Read mode : SecureUtilize accurate stream : YesDefeat audio cache : YesMake use of C2 pointers : No

Read offset correction : 48Overread into Lead-In and Lead-Out : NoFill up missing offset samples with silence : YesDelete leading and trailing silent blocks : NoNull samples used in CRC calculations : YesUsed interface : Native Win32 interface for Win NT & 2000

Used output format : User Defined EncoderSelected bitrate : 128 kBit/sQuality : HighAdd ID3 tag : NoCommand line compressor : G:\Program Files\Exact Audio Copy\Flac\flac.exeAdditional command line options : -8 -V %s

TOC of the extracted CD

Track | Start | Length | Start sector | End sector --------------------------------------------------------- 1 | 0:00.00 | 6:11.00 | 0 | 27824 2 | 6:11.00 | 4:53.00 | 27825 | 49799 3 | 11:04.00 | 4:30.00 | 49800 | 70049 4 | 15:34.00 | 2:44.00 | 70050 | 82349 5 | 18:18.00 | 5:22.00 | 82350 | 106499 6 | 23:40.00 | 4:33.00 | 106500 | 126974 7 | 28:13.00 | 3:52.00 | 126975 | 144374

Range status and errors

Selected range

Filename D:\terr83\Franco Battiato - Clic 1974\CDImage.wav

Peak level 99.2 % Range quality 99.9 % Test CRC 9D51E318 Copy CRC 9D51E318 Copy OK

No errors occurred

AccurateRip summary

Track 1 cannot be verified as accurate (confidence 5) [06278E12], AccurateRip returned [27E0C9C4]Track 2 cannot be verified as accurate (confidence 5) [03FEF8E4], AccurateRip returned [54D72514]Track 3 cannot be verified as accurate (confidence 5) [B19553D5], AccurateRip returned [667F34E5]Track 4 cannot be verified as accurate (confidence 5) [C3FB71CE], AccurateRip returned [9E47B456]Track 5 cannot be verified as accurate (confidence 5) [986AAA02], AccurateRip returned [22FFB64E]Track 6 cannot be verified as accurate (confidence 5) [CF950323], AccurateRip returned [268119EB]Track 7 cannot be verified as accurate (confidence 5) [203A4C94], AccurateRip returned [A278AFF0]

No tracks could be verified as accurateYou may have a different pressing from the one(s) in the database

End of status report
AUDIOCHECKER v2.0 beta (build 457) - by Dester - <a href="mailto:opdester@freemail.hu" class="postLink">opdester@freemail.hu</a>~~~~~~~~~~~~~~~~~~~~~~~~~~~~~~~~~~

Started at: суббота, 03. 03. 2012. - 22:58.301 file found

1 -===- D:\terr83\Franco Battiato - Clic 1974\CDImage.flac Extracted successfully Conclusion: this track is CDDA with probability 100% Tempfile successfully deleted.

Finished at: суббота, 03. 03. 2012. - 23:01.33 (operation time: 0:03.03)


Трекер:  [ 01-Окт-2012 20:27 ]

  

Скачать .torrent

Размер .torrent файла 12 KB


Размер: 143 MB
Хэш (hash) релиза: 0478916f9fa7efe3777020702997530d4596d7dc

Еще никто не оставлял запись к записи скачать торрент Franco Battiato - Clic . Будь первым!

!Обратная связь