Скачать через торрент музыку Cherry Five - Cherry Five бесплатно без регистрации torrent

Если у вас наблюдаются проблемы со скриншотами, переходом по ссылками, скачиванием торрентов - проблемы в блокировщике рекламы AdBlock. #хорошегоДня!


Статистика раздачи
Размер:  263 MB   |    Зарегистрирован:  4 года 10 месяцев   |    .torrent скачан:  20 раз   |   
Раздают:  1  
   
Загрузка...
 
Автор Сообщение

_N_

avatar _N_


Cherry Five / Cherry Five

Жанр: RPI
Страна-производитель диска: Италия
Год издания: 2010
Издатель (лейбл): Cinevox
Номер по каталогу: CDOST703
Страна: Италия
Аудиокодек: FLAC (*.flac)
Тип рипа: image+.cue
Битрейт аудио: lossless
Источник (релизер): terr83
Наличие сканов в содержимом раздачи: да
Треклист:
1. Country Grave Yard 8:16
2. The Picture of Dorian Gray 8:29
3. The Swan is a Murderer Part 1 3:55
4. The Swan is a Murderer Part 2 5:04
5. Oliver 9:30
6. My Little Cloud Land 7:45
Exact Audio Copy V0.99 prebeta 4 from 23. January 2008

EAC extraction logfile from 3. March 2012, 23:47

Cherry Five / Cherry Five

Used drive : Optiarc DVD RW AD-7170S Adapter: 1 ID: 0

Read mode : SecureUtilize accurate stream : YesDefeat audio cache : YesMake use of C2 pointers : No

Read offset correction : 48Overread into Lead-In and Lead-Out : NoFill up missing offset samples with silence : YesDelete leading and trailing silent blocks : NoNull samples used in CRC calculations : YesUsed interface : Native Win32 interface for Win NT & 2000

Used output format : User Defined EncoderSelected bitrate : 128 kBit/sQuality : HighAdd ID3 tag : NoCommand line compressor : G:\Program Files\Exact Audio Copy\Flac\flac.exeAdditional command line options : -8 -V %s

TOC of the extracted CD

Track | Start | Length | Start sector | End sector --------------------------------------------------------- 1 | 0:00.00 | 8:15.59 | 0 | 37183 2 | 8:15.59 | 8:28.47 | 37184 | 75330 3 | 16:44.31 | 3:55.23 | 75331 | 92978 4 | 20:39.54 | 5:04.02 | 92979 | 115780 5 | 25:43.56 | 9:30.17 | 115781 | 158547 6 | 35:13.73 | 7:44.66 | 158548 | 193413

Range status and errors

Selected range

Filename D:\terr83\Cherry Five - Cherry Five 1976\CDImage.wav

Peak level 100.0 % Range quality 100.0 % Test CRC 7BFE82B9 Copy CRC 7BFE82B9 Copy OK

No errors occurred

AccurateRip summary

Track 1 cannot be verified as accurate (confidence 1) [0B2B91C6], AccurateRip returned [605650B6]Track 2 cannot be verified as accurate (confidence 1) [3BD5616C], AccurateRip returned [E388817A]Track 3 cannot be verified as accurate (confidence 1) [3FE7665F], AccurateRip returned [D0712FB5]Track 4 cannot be verified as accurate (confidence 1) [4DCFF201], AccurateRip returned [BEF54339]Track 5 cannot be verified as accurate (confidence 1) [73F940D6], AccurateRip returned [57863539]Track 6 cannot be verified as accurate (confidence 1) [85D3A1EB], AccurateRip returned [05B07796]

No tracks could be verified as accurateYou may have a different pressing from the one(s) in the database

End of status report
AUDIOCHECKER v2.0 beta (build 457) - by Dester - <a href="mailto:opdester@freemail.hu" class="postLink">opdester@freemail.hu</a>~~~~~~~~~~~~~~~~~~~~~~~~~~~~~~~~~~

Started at: суббота, 03. 03. 2012. - 23:51.231 file found

1 -===- D:\terr83\Cherry Five - Cherry Five 1976\CDImage.flac Extracted successfully Conclusion: this track is CDDA with probability 100% Tempfile successfully deleted.

Finished at: суббота, 03. 03. 2012. - 23:56.05 (operation time: 0:04.42)


Трекер:  [ 01-Окт-2012 20:27 ]

  

Скачать .torrent

Размер .torrent файла 11 KB


Размер: 263 MB
Хэш (hash) релиза: 05829713f7ccf4c95ab8a3f31565f7e69452f213

Торренты, похожие на Cherry Five - Cherry Five скачать торрент

Форум Название Автор Размер S L Добавлен
Rосk | Mеtаl | Аltеrnаtivе, Рunk, Indереndеnt (mр3) ·· (Progressive Rock) Cherry Five - Il Pozzo Dei Giganti - 2015, MP3, 320 kbps Galfimbul 121315026116 MB 0 0 1434317545

00:32

15-Июн-15

Еще никто не оставлял запись к записи скачать торрент Cherry Five - Cherry Five . Будь первым!

!Обратная связь