Скачать через торрент музыку Maiden United - Across The Seventh Sea - 2012, FLAC бесплатно без регистрации torrent

Если у вас наблюдаются проблемы со скриншотами, переходом по ссылками, скачиванием торрентов - проблемы в блокировщике рекламы AdBlock. #хорошегоДня!


Статистика раздачи
Размер:  348 MB   |    Зарегистрирован:  4 года 10 месяцев   |    .torrent скачан:  11 раз   |   
Раздают:  1  
   
Загрузка...
 
Автор Сообщение

_N_

avatar _N_



Maiden United / Across The Seventh Sea


Жанр: Acoustic Rock
Год издания: 2012
Номер по каталогу: MU004
Страна: Netherlands
Аудиокодек: FLAC (*.flac)
Тип рипа: tracks+.cue
Битрейт аудио: lossless
Продолжительность: 50:59
Источник (релизер): Carpetsmoker
Наличие сканов в содержимом раздачи: нет
Треклист:
01. Only the Good Die Young (5:19)
02. 2 Minutes to Midnight (6:54)
03. Prowler (4:22)
04. Flash of the Blade (4:13)
05. Children of the Damned (4:53)
06. Infinite Dreams (5:54)
07. 22 Acacia Avenue (9:00)
08. The Evil That Men Do (4:36)
09. Wasted Years (5:49)
Exact Audio Copy V1.0 beta 3 from 29. August 2011

EAC extraction logfile from 27. September 2012, 18:23

Maiden United / Across the Seventh Sea

Used drive : PLEXTOR DVDR PX-L890SA Adapter: 4 ID: 0

Read mode : SecureUtilize accurate stream : YesDefeat audio cache : YesMake use of C2 pointers : No

Read offset correction : 6Overread into Lead-In and Lead-Out : NoFill up missing offset samples with silence : YesDelete leading and trailing silent blocks : NoNull samples used in CRC calculations : YesUsed interface : Native Win32 interface for Win NT & 2000Gap handling : Appended to previous track

Used output format : User Defined EncoderSelected bitrate : 768 kBit/sQuality : HighAdd ID3 tag : NoCommand line compressor : C:\Program Files (x86)\Exact Audio Copy\FLAC\FLAC.EXEAdditional command line options : -8 -V -T "ARTIST=%artist%" -T "TITLE=%title%" -T "ALBUM=%albumtitle%" -T "DATE=%year%" -T "TRACKNUMBER=%tracknr%" -T "GENRE=%genre%" -T "COMMENT=%comment%" -T "BAND=%albuminterpret%" -T "ALBUMARTIST=%albuminterpret%" -T "COMPOSER=%composer%" %haslyrics%--tag-from-file=LYRICS="%lyricsfile%"%haslyrics% -T "DISCNUMBER=%cdnumber%" -T "TOTALDISCS=%totalcds%" -T "TOTALTRACKS=%numtracks%" %hascover%--picture="%coverfile%"%hascover% %source% -o %dest%

TOC of the extracted CD

Track | Start | Length | Start sector | End sector --------------------------------------------------------- 1 | 0:00.00 | 5:18.40 | 0 | 23889 2 | 5:18.40 | 6:54.31 | 23890 | 54970 3 | 12:12.71 | 4:21.67 | 54971 | 74612 4 | 16:34.63 | 4:13.01 | 74613 | 93588 5 | 20:47.64 | 4:53.17 | 93589 | 115580 6 | 25:41.06 | 5:54.18 | 115581 | 142148 7 | 31:35.24 | 8:59.43 | 142149 | 182616 8 | 40:34.67 | 4:35.53 | 182617 | 203294 9 | 45:10.45 | 5:48.41 | 203295 | 229435

Track 1

Filename Y:\music\newrip\01 Track01.wav

Pre-gap length 0:00:02.00

Peak level 98.8 % Extraction speed 3.4 X Track quality 100.0 % Test CRC D93FB195 Copy CRC D93FB195 Track not present in AccurateRip database Copy OK

Track 2

Filename Y:\music\newrip\02 Track02.wav

Pre-gap length 0:00:01.06

Peak level 98.8 % Extraction speed 4.0 X Track quality 100.0 % Test CRC 6D55DDD2 Copy CRC 6D55DDD2 Track not present in AccurateRip database Copy OK

Track 3

Filename Y:\music\newrip\03 Track03.wav

Pre-gap length 0:00:01.52

Peak level 98.8 % Extraction speed 4.1 X Track quality 100.0 % Test CRC BD91A42D Copy CRC BD91A42D Track not present in AccurateRip database Copy OK

Track 4

Filename Y:\music\newrip\04 Track04.wav

Pre-gap length 0:00:01.25

Peak level 98.8 % Extraction speed 4.3 X Track quality 100.0 % Test CRC 13544C24 Copy CRC 13544C24 Track not present in AccurateRip database Copy OK

Track 5

Filename Y:\music\newrip\05 Track05.wav

Pre-gap length 0:00:00.77

Peak level 98.8 % Extraction speed 4.8 X Track quality 100.0 % Test CRC A44180FE Copy CRC A44180FE Track not present in AccurateRip database Copy OK

Track 6

Filename Y:\music\newrip\06 Track06.wav

Pre-gap length 0:00:00.86

Peak level 99.2 % Extraction speed 4.4 X Track quality 99.9 % Test CRC 6DBCB07E Copy CRC 6DBCB07E Track not present in AccurateRip database Copy OK

Track 7

Filename Y:\music\newrip\07 Track07.wav

Pre-gap length 0:00:01.98

Peak level 98.8 % Extraction speed 5.7 X Track quality 100.0 % Test CRC FD68CE30 Copy CRC FD68CE30 Track not present in AccurateRip database Copy OK

Track 8

Filename Y:\music\newrip\08 Track08.wav

Pre-gap length 0:00:02.17

Peak level 98.8 % Extraction speed 5.7 X Track quality 100.0 % Test CRC 57D5A3EF Copy CRC 57D5A3EF Track not present in AccurateRip database Copy OK

Track 9

Filename Y:\music\newrip\09 Track09.wav

Pre-gap length 0:00:01.42

Peak level 98.8 % Extraction speed 6.0 X Track quality 100.0 % Test CRC 08C4B485 Copy CRC 08C4B485 Track not present in AccurateRip database Copy OK

None of the tracks are present in the AccurateRip database

No errors occurred

End of status report

==== Log checksum AB0E781476296B46D31069ED3B55B1B208A24E21F31514D645601EA0A2922206 ====
REM DATE 2012REM DISCID 7E0BF309REM COMMENT "ExactAudioCopy v1.0b3"PERFORMER "Maiden United"TITLE "Across the Seventh Sea"FILE "01 Track01.wav" WAVE TRACK 01 AUDIO TITLE "Track01" PERFORMER "Maiden United" ISRC NLSE31200001 INDEX 01 00:00:00 TRACK 02 AUDIO TITLE "Track02" PERFORMER "Maiden United" ISRC NLSE31200002 INDEX 00 05:17:35FILE "02 Track02.wav" WAVE INDEX 01 00:00:00 TRACK 03 AUDIO TITLE "Track03" PERFORMER "Maiden United" ISRC NLSE31200003 INDEX 00 06:52:67FILE "03 Track03.wav" WAVE INDEX 01 00:00:00 TRACK 04 AUDIO TITLE "Track04" PERFORMER "Maiden United" ISRC NLSE31200004 INDEX 00 04:20:48FILE "04 Track04.wav" WAVE INDEX 01 00:00:00 TRACK 05 AUDIO TITLE "Track05" PERFORMER "Maiden United" ISRC NLSE31200005 INDEX 00 04:12:18FILE "05 Track05.wav" WAVE INDEX 01 00:00:00 TRACK 06 AUDIO TITLE "Track06" PERFORMER "Maiden United" ISRC NLSE31200006 INDEX 00 04:52:27FILE "06 Track06.wav" WAVE INDEX 01 00:00:00 TRACK 07 AUDIO TITLE "Track07" PERFORMER "Maiden United" ISRC NLSE31200007 INDEX 00 05:52:19FILE "07 Track07.wav" WAVE INDEX 01 00:00:00 TRACK 08 AUDIO TITLE "Track08" PERFORMER "Maiden United" ISRC NLSE31200008 INDEX 00 08:57:30FILE "08 Track08.wav" WAVE INDEX 01 00:00:00 TRACK 09 AUDIO TITLE "Track09" PERFORMER "Maiden United" ISRC NLSE31200009 INDEX 00 04:34:21FILE "09 Track09.wav" WAVE INDEX 01 00:00:00
-----------------------

DON'T MODIFY THIS FILE

-----------------------

PERFORMER: auCDtect Task Manager, ver. 1.5.1RC4 build 1.5.1.5Copyright (c) 2008-2010 y-soft. All rights reservedhttp://y-soft.org

ANALYZER: auCDtect: CD records authenticity detector, version 0.8.2Copyright (c) 2004 Oleg Berngardt. All rights reserved.Copyright (c) 2004 Alexander Djourik. All rights reserved.

FILE: 09 Wasted Years.flac Size: 44201531 Hash: AD065B6D2D8BC1E4EB9AB500B54D380E Accuracy: -m0 Conclusion: CDDA 100% Signature: 53AC7345E180618DB2A28709FC632DDFB97CF314FILE: 08 The Evil That Men Do.flac Size: 29286441 Hash: C2D17AE456B1D67808DCD69E0D033EE3 Accuracy: -m0 Conclusion: CDDA 99% Signature: DA9683F86A24DA85C791F4A64691938F87A447EDFILE: 07 22 Acacia Avenue.flac Size: 65605015 Hash: 44EDDD168BE8E6B10CC15436AE629C43 Accuracy: -m0 Conclusion: CDDA 100% Signature: 946A1C03A9781DFFDE90305C44B449353D777F43FILE: 06 Infinite Dreams.flac Size: 43333059 Hash: A9F88FBB6C601DBE03563D5B5A4DE7A3 Accuracy: -m0 Conclusion: CDDA 100% Signature: 49B5E341A1938F33EC679B515EC9A98415F74BBEFILE: 05 Children of the Damned.flac Size: 31750767 Hash: 267E3F305D0CD096AB7A3F3345BB7A69 Accuracy: -m0 Conclusion: CDDA 100% Signature: 335C38A43509A57362D9A3922579CE0D88631CFFFILE: 04 Flash of the Blade.flac Size: 30219882 Hash: 2E9C997648664DC82F0F8C93F422DFD6 Accuracy: -m0 Conclusion: CDDA 100% Signature: 847D8CEE3899B4842CD946AC5DF32CAEA4FEB7B4FILE: 03 Prowler.flac Size: 32891167 Hash: 49986ECD7F6ECCD1ED77816DBB914551 Accuracy: -m0 Conclusion: CDDA 99% Signature: 4BAEA68758CE84FAEA6AA2928CF4C1A0A4EC88D7FILE: 02 2 Minutes to Midnight.flac Size: 47708525 Hash: 547941075B06CB165FEB27DA2CA4F48F Accuracy: -m0 Conclusion: CDDA 100% Signature: E04999C28724E639BD41FDACE28B40CF2596EC00FILE: 01 Only the Good Die Young.flac Size: 39858523 Hash: CBDB3FBDE3E3CA2AE72AA2EB9FF954F0 Accuracy: -m0 Conclusion: CDDA 100% Signature: 4D1A926E263CE5064BD3643310D8C0DD217F2F47
* Damian Wilson (THRESHOLD, AYREON): вокал

* Ruud Jolie (WITHIN TEMPTATION): гитары

* Joey Bruers (UP THE IRONS): бас

* Marco Kuypers (SILKSTONE): пианино

* Mike Coolen (WITHIN TEMPTATION): барабаны

* Anneke van Giersbergen (THE GATHERING, DEVIN TOWNSEND): вокал

* Perttu Kivilaakso (APOCALYPTICA): виолончель


Трекер:  [ 01-Окт-2012 20:27 ]

  

Скачать .torrent

Размер .torrent файла 14 KB


Размер: 348 MB
Хэш (hash) релиза: a4c1211cda8974973df6437b5e73a759f66b33c8

Еще никто не оставлял запись к записи скачать торрент Maiden United - Across The Seventh Sea - 2012, FLAC . Будь первым!

!Обратная связь