Скачать через торрент музыку Acqua Fragile - Acqua Fragile бесплатно без регистрации torrent

Если у вас наблюдаются проблемы со скриншотами, переходом по ссылками, скачиванием торрентов - проблемы в блокировщике рекламы AdBlock. #хорошегоДня!


Статистика раздачи
Размер:  282 MB   |    Зарегистрирован:  4 года 10 месяцев   |    .torrent скачан:  15 раз   |   
Раздают:  1  
   
Загрузка...
 
Автор Сообщение

_N_

avatar _N_


Acqua Fragile / Acqua Fragile

Жанр: RPI
Страна-производитель диска: Италия
Год издания: 2008
Издатель (лейбл): Sony BMG
Номер по каталогу: 88697343682
Страна: Италия
Аудиокодек: FLAC (*.flac)
Тип рипа: image+.cue
Битрейт аудио: lossless
Источник (релизер): terr83
Наличие сканов в содержимом раздачи: да
Треклист:
1. Morning Comes 7:27
2. Comic Strips 4:00
3. Science Fiction Suite 5:58
4. Song From A Picture 4:13
5. Education Story 4:18
6. Going Out 3:00
7. Three Hands Man 8:08
Exact Audio Copy V0.99 prebeta 4 from 23. January 2008

EAC extraction logfile from 29. February 2012, 19:03

Acqua Fragile / Acqua Fragile

Used drive : Optiarc DVD RW AD-7170S Adapter: 1 ID: 0

Read mode : SecureUtilize accurate stream : YesDefeat audio cache : YesMake use of C2 pointers : No

Read offset correction : 48Overread into Lead-In and Lead-Out : NoFill up missing offset samples with silence : YesDelete leading and trailing silent blocks : NoNull samples used in CRC calculations : YesUsed interface : Native Win32 interface for Win NT & 2000

Used output format : User Defined EncoderSelected bitrate : 128 kBit/sQuality : HighAdd ID3 tag : NoCommand line compressor : G:\Program Files\Exact Audio Copy\Flac\flac.exeAdditional command line options : -8 -V %s

TOC of the extracted CD

Track | Start | Length | Start sector | End sector --------------------------------------------------------- 1 | 0:00.00 | 7:26.66 | 0 | 33515 2 | 7:26.66 | 4:00.24 | 33516 | 51539 3 | 11:27.15 | 5:58.23 | 51540 | 78412 4 | 17:25.38 | 4:12.60 | 78413 | 97372 5 | 21:38.23 | 4:17.40 | 97373 | 116687 6 | 25:55.63 | 2:59.70 | 116688 | 130182 7 | 28:55.58 | 8:07.39 | 130183 | 166746

Range status and errors

Selected range

Filename D:\terr83\Acqua Fragile - Acqua Fragile 1973\CDImage.wav

Peak level 96.8 % Range quality 100.0 % Test CRC 758EA5DE Copy CRC 758EA5DE Copy OK

No errors occurred

AccurateRip summary

Track 1 not present in databaseTrack 2 not present in databaseTrack 3 not present in databaseTrack 4 not present in databaseTrack 5 not present in databaseTrack 6 not present in databaseTrack 7 not present in database

None of the tracks are present in the AccurateRip database

End of status report
AUDIOCHECKER v2.0 beta (build 457) - by Dester - <a href="mailto:opdester@freemail.hu" class="postLink">opdester@freemail.hu</a>~~~~~~~~~~~~~~~~~~~~~~~~~~~~~~~~~~

Started at: воскресенье, 30. 09. 2012. - 12:43.391 file found

1 -===- D:\terr83\Acqua Fragile - Acqua Fragile 1973\CDImage.flac Extracted successfully Conclusion: this track is CDDA with probability 100% Tempfile successfully deleted.

Finished at: воскресенье, 30. 09. 2012. - 12:47.23 (operation time: 0:03.44)


Трекер:  [ 01-Окт-2012 20:27 ]

  

Скачать .torrent

Размер .torrent файла 11 KB


Размер: 282 MB
Хэш (hash) релиза: d1ab95990bbb92bad6a7c7881b42cf7e64462502

Еще никто не оставлял запись к записи скачать торрент Acqua Fragile - Acqua Fragile . Будь первым!

!Обратная связь