Скачать через торрент музыку Morgan - Nova Solis бесплатно без регистрации torrent

Если у вас наблюдаются проблемы со скриншотами, переходом по ссылками, скачиванием торрентов - проблемы в блокировщике рекламы AdBlock. #хорошегоДня!


Статистика раздачи
Размер:  276 MB   |    Зарегистрирован:  5 лет   |    .torrent скачан:  25 раз   |   
Раздают:  1  
   
Загрузка...
 
Автор Сообщение

_N_

avatar _N_


Morgan / Nova Solis

Жанр: Progressive rock
Страна-производитель диска: Великобритания
Год издания: 2009
Издатель (лейбл): Esoteric
Номер по каталогу: ECLEC 2152
Страна: Великобритания
Аудиокодек: FLAC (*.flac)
Тип рипа: image+.cue
Битрейт аудио: lossless
Источник (релизер): terr83
Наличие сканов в содержимом раздачи: да
Треклист:
1. Samarkhand The Golden 8:05
2. Alone 5:17
3. War Games 7:04
4. Nova Solis: a suite 20:18
Exact Audio Copy V0.99 prebeta 4 from 23. January 2008

EAC extraction logfile from 25. February 2011, 23:11

Morgan / Nova Solis

Used drive : Optiarc DVD RW AD-7170S Adapter: 1 ID: 0

Read mode : SecureUtilize accurate stream : YesDefeat audio cache : YesMake use of C2 pointers : No

Read offset correction : 48Overread into Lead-In and Lead-Out : NoFill up missing offset samples with silence : YesDelete leading and trailing silent blocks : NoNull samples used in CRC calculations : YesUsed interface : Native Win32 interface for Win NT & 2000

Used output format : User Defined EncoderSelected bitrate : 128 kBit/sQuality : HighAdd ID3 tag : NoCommand line compressor : G:\Program Files\Exact Audio Copy\Flac\flac.exeAdditional command line options : -8 -V %s

TOC of the extracted CD

Track | Start | Length | Start sector | End sector --------------------------------------------------------- 1 | 0:00.00 | 8:04.65 | 0 | 36364 2 | 8:04.65 | 5:17.30 | 36365 | 60169 3 | 13:22.20 | 7:03.58 | 60170 | 91952 4 | 20:26.03 | 20:17.65 | 91953 | 183292

Range status and errors

Selected range

Filename D:\terr83\Morgan - Nova Solis 1972\CDImage.wav

Peak level 99.4 % Range quality 100.0 % Test CRC AEABAD21 Copy CRC AEABAD21 Copy OK

No errors occurred

AccurateRip summary

Track 1 cannot be verified as accurate (confidence 3) [61F8FAF5], AccurateRip returned [8F8468B8]Track 2 cannot be verified as accurate (confidence 3) [09E26A2B], AccurateRip returned [A436B77B]Track 3 cannot be verified as accurate (confidence 3) [C987E074], AccurateRip returned [39661953]Track 4 cannot be verified as accurate (confidence 3) [13C8AAEA], AccurateRip returned [AFD6E82C]

No tracks could be verified as accurateYou may have a different pressing from the one(s) in the database

End of status report
AUDIOCHECKER v2.0 beta (build 457) - by Dester - <a href="mailto:opdester@freemail.hu" class="postLink">opdester@freemail.hu</a>~~~~~~~~~~~~~~~~~~~~~~~~~~~~~~~~~~

Started at: пятница, 25. 02. 2011. - 23:13.221 file found

1 -===- D:\terr83\Morgan - Nova Solis 1972\CDImage.flac Extracted successfully Conclusion: this track is CDDA with probability 100% Tempfile successfully deleted.

Finished at: пятница, 25. 02. 2011. - 23:17.37 (operation time: 0:04.14)


Трекер:  [ 01-Окт-2012 20:27 ]

  

Скачать .torrent

Размер .torrent файла 12 KB


Размер: 276 MB
Хэш (hash) релиза: d94f458cfaaf2b59c210e94e1bd74a6d5cab0573

Еще никто не оставлял запись к записи скачать торрент Morgan - Nova Solis . Будь первым!

!Обратная связь