Скачать через торрент музыку Marillion - Script For A Jesters Tear, Fugazi, Misplaced Childhood, Clutching At Straws - 1983-1987, FLAC бесплатно без регистрации torrent

Если у вас наблюдаются проблемы со скриншотами, переходом по ссылками, скачиванием торрентов - проблемы в блокировщике рекламы AdBlock. #хорошегоДня!


Статистика раздачи
Размер:  1.08 GB   |    Зарегистрирован:  4 года 10 месяцев   |    .torrent скачан:  35 раз   |   
Раздают:  1  
   
Загрузка...
 
Автор Сообщение

_N_

avatar _N_


Marillion / Script For A Jester's Tear, Fugazi, Misplaced Childhood, Clutching At Straws

Жанр: Progressive
Страна-производитель диска: Bul
Год издания: 1983-1987
Издатель (лейбл): пират
Страна: UK
Аудиокодек: FLAC (*.flac)
Тип рипа: image+.cue
Битрейт аудио: lossless
Продолжительность: 46'44", 45'56", 41'17", 52'20"
Источник (релизер): мои
Наличие сканов в содержимом раздачи: да
Треклист:
Script for a Jester's Tear' 1983
1 Script for a Jester's Tear
2 He Knows You Know
3 The Web
4 Garden Party
5 Chelsea Monday
6 Forgotten Sons

Fugazi' 1984
1 Assassing
2 Punch & Judy
3 Jigsaw
4 Emerald Lies
5 She Chameleon
6 Incubus
7 Fugazi

Misplaced Childhood' 1985
1 Pseudo Silk Kimono
2 Kayleigh
3 Lavender
4 Bitter Suite
5 Heart Of Lothian
6 Waterhole
7 Lords Of The Backstage
8 Blind Curve
9 Childhood's End
10 White Feather

Clutching at Straws' 1987
1 Hotel Hobbies
2 Warm Wet Circles
3 That Time Of The Night (The Short Straw)
4 Going Under
5 Just For The Record
6 White Russian
7 Incommunicado
8 Torch Song
9 Slainte Mhath
10 Sugar Mice
11 Last Straw
Script For A Jester's Tear

Exact Audio Copy V1.0 beta 3 from 29. August 2011

Отчёт EAC об извлечении, выполненном 30. сентября 2012, 20:06

Marillion / Script For A Jester's Tear

Дисковод: TSSTcorpCD/DVDW TS-L632D Adapter: 2 ID: 0

Режим чтения : ДостоверностьИспользование точного потока : ДаОтключение кэша аудио : ДаИспользование указателей C2 : Нет

Коррекция смещения при чтении : 6Способность читать области Lead-in и Lead-out : НетЗаполнение пропущенных сэмплов тишиной : ДаУдаление блоков с тишиной в начале и конце : НетПри вычислениях CRC использовались нулевые сэмплы : ДаИнтерфейс : Встроенный Win32-интерфейс для Win NT/2000

Выходной формат : Пользовательский кодировщикВыбранный битрейт : 768 kBit/sКачество : ВысокийДобавление ID3-тега : НетУтилита сжатия : C:\Program Files\Exact Audio Copy\FLAC\FLAC.EXEДополнительные параметры : -V -8 -T "Date=%year%" -T "Genre=%genre%" %source%

TOC извлечённого CD

Трек | Старт | Длительность | Начальный сектор | Конечный сектор --------------------------------------------------------------------- 1 | 0:00.32 | 8:39.70 | 32 | 39026 2 | 8:40.27 | 5:22.55 | 39027 | 63231 3 | 14:03.07 | 8:48.10 | 63232 | 102841 4 | 22:51.17 | 7:15.70 | 102842 | 135536 5 | 30:07.12 | 8:16.40 | 135537 | 172776 6 | 38:23.52 | 8:21.23 | 172777 | 210374

Характеристики диапазона извлечения и сообщения об ошибках

Выбранный диапазон

Имя файла D:\Музыка\рип\Marillion - Script For A Jester's Tear.wav

Пиковый уровень 100.0 % Скорость извлечения 4.0 X Качество диапазона 100.0 % CRC теста CA3C30F0 CRC копии CA3C30F0 Копирование... OK

Ошибок не произошло

AccurateRip: сводка

Трек 1 : извлечено точно (доверие 2) [A9B1B817] (AR v2)Трек 2 : извлечено точно (доверие 2) [2A8EEF8A] (AR v2)Трек 3 : извлечено точно (доверие 2) [40351C21] (AR v2)Трек 4 : извлечено точно (доверие 2) [3BC8F8CD] (AR v2)Трек 5 : извлечено точно (доверие 2) [E8EBE4CB] (AR v2)Трек 6 : извлечено точно (доверие 2) [07204921] (AR v2)

Все треки извлечены точно

Конец отчёта

==== Контрольная сумма отчёта D135ADE6FBCE64DD2D6220F2B77E4C51DDAB1644F5634EF07C1E84A07F5484EC ====

Fugazi

Exact Audio Copy V1.0 beta 3 from 29. August 2011

Отчёт EAC об извлечении, выполненном 30. сентября 2012, 20:38

Marillion / Fugazi

Дисковод: TSSTcorpCD/DVDW TS-L632D Adapter: 2 ID: 0

Режим чтения : ДостоверностьИспользование точного потока : ДаОтключение кэша аудио : ДаИспользование указателей C2 : Нет

Коррекция смещения при чтении : 6Способность читать области Lead-in и Lead-out : НетЗаполнение пропущенных сэмплов тишиной : ДаУдаление блоков с тишиной в начале и конце : НетПри вычислениях CRC использовались нулевые сэмплы : ДаИнтерфейс : Встроенный Win32-интерфейс для Win NT/2000

Выходной формат : Пользовательский кодировщикВыбранный битрейт : 768 kBit/sКачество : ВысокийДобавление ID3-тега : НетУтилита сжатия : C:\Program Files\Exact Audio Copy\FLAC\FLAC.EXEДополнительные параметры : -V -8 -T "Date=%year%" -T "Genre=%genre%" %source%

TOC извлечённого CD

Трек | Старт | Длительность | Начальный сектор | Конечный сектор --------------------------------------------------------------------- 1 | 0:00.00 | 7:02.00 | 0 | 31649 2 | 7:02.00 | 3:21.37 | 31650 | 46761 3 | 10:23.37 | 6:49.38 | 46762 | 77474 4 | 17:13.00 | 5:08.72 | 77475 | 100646 5 | 22:21.72 | 6:52.48 | 100647 | 131594 6 | 29:14.45 | 8:30.32 | 131595 | 169876 7 | 37:45.02 | 8:12.70 | 169877 | 206846

Характеристики диапазона извлечения и сообщения об ошибках

Выбранный диапазон

Имя файла D:\Музыка\рип\Marillion - Fugazi.wav

Пиковый уровень 96.6 % Скорость извлечения 4.0 X Качество диапазона 100.0 % CRC теста 03C10BB6 CRC копии 03C10BB6 Копирование... OK

Ошибок не произошло

AccurateRip: сводка

Трек 1 : извлечено точно (доверие 2) [8D21EF97] (AR v1)Трек 2 : извлечено точно (доверие 2) [6E166F9F] (AR v1)Трек 3 : извлечено точно (доверие 2) [ACD5F36F] (AR v1)Трек 4 : извлечено точно (доверие 2) [8FF5609C] (AR v1)Трек 5 : извлечено точно (доверие 2) [883CD572] (AR v1)Трек 6 : извлечено точно (доверие 2) [B473A75E] (AR v1)Трек 7 : извлечено точно (доверие 2) [DD1E443D] (AR v1)

Все треки извлечены точно

Конец отчёта

==== Контрольная сумма отчёта D5FD9B74D74177F08EA2BDC5DE3D6FC1E13E60393FE976BBEC0F4A0EBB36B91D ====

Misplaced Childhood

Exact Audio Copy V1.0 beta 3 from 29. August 2011

Отчёт EAC об извлечении, выполненном 30. сентября 2012, 21:30

Marillion / Misplaced Childhood

Дисковод: TSSTcorpCD/DVDW TS-L632D Adapter: 2 ID: 0

Режим чтения : ДостоверностьИспользование точного потока : ДаОтключение кэша аудио : ДаИспользование указателей C2 : Нет

Коррекция смещения при чтении : 6Способность читать области Lead-in и Lead-out : НетЗаполнение пропущенных сэмплов тишиной : ДаУдаление блоков с тишиной в начале и конце : НетПри вычислениях CRC использовались нулевые сэмплы : ДаИнтерфейс : Встроенный Win32-интерфейс для Win NT/2000

Выходной формат : Пользовательский кодировщикВыбранный битрейт : 768 kBit/sКачество : ВысокийДобавление ID3-тега : НетУтилита сжатия : C:\Program Files\Exact Audio Copy\FLAC\FLAC.EXEДополнительные параметры : -V -8 -T "Date=%year%" -T "Genre=%genre%" %source%

TOC извлечённого CD

Трек | Старт | Длительность | Начальный сектор | Конечный сектор --------------------------------------------------------------------- 1 | 0:00.33 | 2:14.47 | 33 | 10129 2 | 2:15.05 | 4:03.53 | 10130 | 28407 3 | 6:18.58 | 2:27.17 | 28408 | 39449 4 | 8:46.00 | 5:53.28 | 39450 | 65952 5 | 14:39.28 | 6:06.15 | 65953 | 93417 6 | 20:45.43 | 2:12.65 | 93418 | 103382 7 | 22:58.33 | 1:52.60 | 103383 | 111842 8 | 24:51.18 | 9:29.45 | 111843 | 154562 9 | 34:20.63 | 4:32.57 | 154563 | 175019 10 | 38:53.45 | 2:23.60 | 175020 | 185804

Характеристики диапазона извлечения и сообщения об ошибках

Выбранный диапазон

Имя файла D:\Музыка\рип\Marillion - Misplaced Childhood.wav

Пиковый уровень 100.0 % Скорость извлечения 3.9 X Качество диапазона 99.9 % CRC теста 8879E6AA CRC копии 8879E6AA Копирование... OK

Ошибок не произошло

AccurateRip: сводка

Трек 1 : извлечено точно (доверие 2) [056683AD] (AR v1)Трек 2 : извлечено точно (доверие 2) [30DF4538] (AR v1)Трек 3 : извлечено точно (доверие 2) [FB6EE3DE] (AR v1)Трек 4 : извлечено точно (доверие 2) [7C94085F] (AR v1)Трек 5 : извлечено точно (доверие 2) [B43A4127] (AR v1)Трек 6 : извлечено точно (доверие 2) [38A64F81] (AR v1)Трек 7 : извлечено точно (доверие 2) [75997786] (AR v1)Трек 8 : извлечено точно (доверие 2) [A8881B06] (AR v1)Трек 9 : извлечено точно (доверие 2) [DE0C5F32] (AR v1)Трек 10 : извлечено точно (доверие 2) [157BA147] (AR v1)

Все треки извлечены точно

Конец отчёта

==== Контрольная сумма отчёта C118B7D17C8025FAD8EE7696822DBBA41E8795D6F657F6B8E5DB5C5199BF5967 ====

Exact Audio Copy V1.0 beta 3 from 29. August 2011Clutching At Straws

Отчёт EAC об извлечении, выполненном 30. сентября 2012, 19:13

Marillion / Clutching At Straws

Дисковод: TSSTcorpCD/DVDW TS-L632D Adapter: 2 ID: 0

Режим чтения : ДостоверностьИспользование точного потока : ДаОтключение кэша аудио : ДаИспользование указателей C2 : Нет

Коррекция смещения при чтении : 6Способность читать области Lead-in и Lead-out : НетЗаполнение пропущенных сэмплов тишиной : ДаУдаление блоков с тишиной в начале и конце : НетПри вычислениях CRC использовались нулевые сэмплы : ДаИнтерфейс : Встроенный Win32-интерфейс для Win NT/2000

Выходной формат : Пользовательский кодировщикВыбранный битрейт : 768 kBit/sКачество : ВысокийДобавление ID3-тега : НетУтилита сжатия : C:\Program Files\Exact Audio Copy\FLAC\FLAC.EXEДополнительные параметры : -V -8 -T "Date=%year%" -T "Genre=%genre%" %source%

TOC извлечённого CD

Трек | Старт | Длительность | Начальный сектор | Конечный сектор --------------------------------------------------------------------- 1 | 0:00.33 | 3:35.60 | 33 | 16217 2 | 3:36.18 | 4:25.20 | 16218 | 36112 3 | 8:01.38 | 6:00.42 | 36113 | 63154 4 | 14:02.05 | 2:47.58 | 63155 | 75737 5 | 16:49.63 | 3:09.52 | 75738 | 89964 6 | 19:59.40 | 6:27.35 | 89965 | 119024 7 | 26:27.00 | 5:16.60 | 119025 | 142784 8 | 31:43.60 | 4:04.70 | 142785 | 161154 9 | 35:48.55 | 4:45.18 | 161155 | 182547 10 | 40:33.73 | 5:46.55 | 182548 | 208552 11 | 46:20.53 | 5:58.22 | 208553 | 235424

Характеристики диапазона извлечения и сообщения об ошибках

Выбранный диапазон

Имя файла D:\Музыка\рип\Marillion - Clutching At Straws.wav

Пиковый уровень 99.9 % Скорость извлечения 4.1 X Качество диапазона 100.0 % CRC теста 340957E4 CRC копии 340957E4 Копирование... OK

Ошибок не произошло

AccurateRip: сводка

Трек 1 : извлечено точно (доверие 3) [DC274614] (AR v1)Трек 2 : извлечено точно (доверие 3) [10075BB0] (AR v1)Трек 3 : извлечено точно (доверие 3) [5A0E4162] (AR v1)Трек 4 : извлечено точно (доверие 3) [10AAFE74] (AR v1)Трек 5 : извлечено точно (доверие 3) [32056286] (AR v1)Трек 6 : извлечено точно (доверие 2) [FC8E6ECD] (AR v1)Трек 7 : извлечено точно (доверие 3) [8754667D] (AR v1)Трек 8 : извлечено точно (доверие 3) [57BE19AD] (AR v1)Трек 9 : извлечено точно (доверие 3) [524AAC36] (AR v1)Трек 10 : извлечено точно (доверие 3) [D1871BD9] (AR v1)Трек 11 : извлечено точно (доверие 3) [46571E2F] (AR v1)

Все треки извлечены точно

Конец отчёта

==== Контрольная сумма отчёта 134B41C661ED195F111401231AF82BE4F33A5B9B5BFC54D5A24614E33E52A84A ====


Трекер:  [ 01-Окт-2012 20:27 ]

  

Скачать .torrent

Размер .torrent файла 13 KB


Размер: 1.08 GB
Хэш (hash) релиза: 9d4f403b2b1fa23545e3e71efbce770fd7bf6ca0

Еще никто не оставлял запись к записи скачать торрент Marillion - Script For A Jesters Tear, Fugazi, Misplaced Childhood, Clutching At Straws - 1983-1987, FLAC . Будь первым!

!Обратная связь