Скачать через торрент музыку Petra - Not Of This World - 1983, FLAC бесплатно без регистрации torrent

Если у вас наблюдаются проблемы со скриншотами, переходом по ссылками, скачиванием торрентов - проблемы в блокировщике рекламы AdBlock. #хорошегоДня!


Статистика раздачи
Размер:  274 MB   |    Зарегистрирован:  5 лет 1 месяц   |    .torrent скачан:  10 раз   |   
Раздают:  1  
   
Загрузка...
 
Автор Сообщение

Galfimbul

avatar Galfimbul


Petra / Not Of This World (1983)

Жанр: AOR/Crossover Prog
Страна-производитель диска: U.S.A.
Год издания: 199?
Издатель (лейбл): Star Song
Номер по каталогу: SSD 8050
Страна: U.S.A.
Аудиокодек: FLAC (*.flac)
Тип рипа: image+.cue
Битрейт аудио: lossless
Продолжительность: 42 минуты
Источник (релизер): собственный рип
Наличие сканов в содержимом раздачи: да

Треклист:
1. Visions (Doxology) - 2:00
2. Not Of This World - 4:52
3. Bema Seat - 3:56
4. Grave Robber - 4:19
5. Blinded Eyes - 5:32
6. Not By Sight - 3:21
7. Lift Him Up - 3:26
8. Pied Piper - 4:01
9. Occupy - 3:30
10. Godpleaser - 4:36
11. Visions (Reprise) (Doxology) - 2:26
Exact Audio Copy V1.0 beta 3 from 29. August 2011

EAC extraction logfile from 30. September 2012, 10:41

Petra / Not Of This World

Used drive : SlimtypeDVD A DS8A5SH Adapter: 0 ID: 1

Read mode : SecureUtilize accurate stream : YesDefeat audio cache : YesMake use of C2 pointers : No

Read offset correction : 6Overread into Lead-In and Lead-Out : NoFill up missing offset samples with silence : YesDelete leading and trailing silent blocks : NoNull samples used in CRC calculations : YesUsed interface : Native Win32 interface for Win NT & 2000

Used output format : User Defined EncoderSelected bitrate : 320 kBit/sQuality : HighAdd ID3 tag : NoCommand line compressor : C:\Program Files (x86)\Exact Audio Copy\Flac\flac.exeAdditional command line options : -V -8 -T "Date=%year%" -T "Genre=%genre%" %source%

TOC of the extracted CD

Track | Start | Length | Start sector | End sector --------------------------------------------------------- 1 | 0:00.00 | 2:01.22 | 0 | 9096 2 | 2:01.22 | 4:51.55 | 9097 | 30976 3 | 6:53.02 | 3:56.63 | 30977 | 48739 4 | 10:49.65 | 4:19.65 | 48740 | 68229 5 | 15:09.55 | 5:32.05 | 68230 | 93134 6 | 20:41.60 | 3:21.02 | 93135 | 108211 7 | 24:02.62 | 3:26.25 | 108212 | 123686 8 | 27:29.12 | 4:00.70 | 123687 | 141756 9 | 31:30.07 | 3:30.28 | 141757 | 157534 10 | 35:00.35 | 4:36.17 | 157535 | 178251 11 | 39:36.52 | 2:25.60 | 178252 | 189186

Range status and errors

Selected range

Filename D:\My Music\Petra - 1983 Not Of This World\Petra - Not Of This World.wav

Peak level 74.1 % Extraction speed 3.5 X Range quality 100.0 % Test CRC 5D809EAB Copy CRC 5D809EAB Copy OK

No errors occurred

AccurateRip summary

Track 1 accurately ripped (confidence 4) [7FF69054] (AR v1)Track 2 accurately ripped (confidence 4) [C5A6C92A] (AR v1)Track 3 accurately ripped (confidence 4) [53F2862D] (AR v1)Track 4 accurately ripped (confidence 4) [36A1C3C0] (AR v1)Track 5 accurately ripped (confidence 4) [F7771D6D] (AR v1)Track 6 accurately ripped (confidence 4) [EC3DFFC7] (AR v1)Track 7 accurately ripped (confidence 4) [E4D20DE3] (AR v1)Track 8 accurately ripped (confidence 4) [19B59A5A] (AR v1)Track 9 accurately ripped (confidence 4) [5845B8F8] (AR v1)Track 10 accurately ripped (confidence 4) [D036C523] (AR v1)Track 11 accurately ripped (confidence 4) [64A2BB92] (AR v1)

All tracks accurately ripped

End of status report

==== Log checksum 2EF49F73321E8A574A92810DA508DBE2C3945925F237D8D680095A3FCFAAF531 ====


Трекер:  [ 30-Сен-2012 15:08 ]

  

Скачать .torrent

Размер .torrent файла 11 KB


Размер: 274 MB
Хэш (hash) релиза: 1c3130b3c87b848e3de5dd69ecbe49c792c36dba

Еще никто не оставлял запись к записи скачать торрент Petra - Not Of This World - 1983, FLAC . Будь первым!

!Обратная связь