Скачать через торрент музыку Richie Sambora - Aftermath Of The Lowdown - 2012, FLAC бесплатно без регистрации torrent

Если у вас наблюдаются проблемы со скриншотами, переходом по ссылками, скачиванием торрентов - проблемы в блокировщике рекламы AdBlock. #хорошегоДня!


Статистика раздачи
Размер:  376 MB   |    Зарегистрирован:  5 лет   |    .torrent скачан:  31 раз   |   
Раздают:  1  
   
Загрузка...
 
Автор Сообщение

Galfimbul

avatar Galfimbul


Richie Sambora / Aftermath Of The Lowdown

Жанр: Rock
Страна-производитель диска: EU
Год издания: 2012
Издатель (лейбл): Aggressive Music
Номер по каталогу: RS003
Страна: USA
Аудиокодек: FLAC (*.flac)
Тип рипа: image+.cue
Битрейт аудио: lossless
Продолжительность: 51:24
Источник (релизер): The Prog Professor
Наличие сканов в содержимом раздачи: front & back
Треклист:
01. Burn That Candle Down
02. Every Road Leads Home To You
03. Taking A Chance On The Wind
04. Nowadays
05. Weathering The Storm
06. Sugar Daddy
07. I'll Always Walk Beside You
08. Seven Years Gone
09. Learning How To Fly With A Broken Wing
10. You Can Only Get So High
11. World
Log translation at http://eachelper.uphero.com/

Exact Audio Copy V0.99 prebeta 5 from 4. May 2009

EAC extraction logfile from 26. September 2012, 0:48

Richie Sambora / Aftermath Of The Lowdown

Used drive : PIONEER DVD-RW DVR-219L Adapter: 3 ID: 0

Lees mode : : VeiligUtilize accurate stream : YesDefeat audio cache : NoMaak gebruik van C2 pointers : Ja

Lees-offset correctie : : 6Overread into Lead-In and Lead-Out: NoFill up missing offset samples with silence: YesDelete leading and trailing silent blocks: NoNull samples used in CRC calculations: YesGebruikte interface : Native Win32 interface voor Win NT & 2000

Used output format : : Internal WAV RoutinesSample format : 44.100 Hz; 16 Bit; Stereo

TOC of the extracted CD

Track | Start | Length | Start sector | End sector ----------------------------------------------------------- 1 | 0:00.00 | 4:23.61 | 0 | 19785 2 | 4:23.61 | 4:40.66 | 19786 | 40851 3 | 9:04.52 | 4:48.06 | 40852 | 62457 4 | 13:52.58 | 4:00.62 | 62458 | 80519 5 | 17:53.45 | 4:49.65 | 80520 | 102259 6 | 22:43.35 | 4:37.28 | 102260 | 123062 7 | 27:20.63 | 5:03.73 | 123063 | 145860 8 | 32:24.61 | 5:37.25 | 145861 | 171160 9 | 38:02.11 | 4:36.05 | 171161 | 191865 10 | 42:38.16 | 6:25.44 | 191866 | 220784 11 | 49:03.60 | 2:22.20 | 220785 | 231454

Range status and errors

Selected range

Bestands naam F:\POST 2\Richie Sambora - Aftermath Of The Lowdown (EAC)\Richie Sambora - Aftermath Of The Lowdown.wav

Peak level 100.0 % Uitlees snelheid 5.0 X Range quality 100.0 % Copy CRC 47867D62 Copy OK

No errors occurred

AccurateRip samenvatting

Track 1 niet aanwezig in databaseTrack 2 niet aanwezig in databaseTrack 3 niet aanwezig in databaseTrack 4 niet aanwezig in databaseTrack 5 niet aanwezig in databaseTrack 6 niet aanwezig in databaseTrack 7 niet aanwezig in databaseTrack 8 niet aanwezig in databaseTrack 9 niet aanwezig in databaseTrack 10 niet aanwezig in databaseTrack 11 niet aanwezig in database

Geen enkele Track aanwezig in AccurateRip database

Einde status report
Richie Sambora – vocals, acoustic & electric guitar
Aaron Sterling - drums
Matt Rollings - piano, organ
Curt Schneider - bass
Rusty Anderson - guitar
Roger Joseph Manning, Jr. - keyboards


Трекер:  [ 30-Сен-2012 15:10 ]

  

Скачать .torrent

Размер .torrent файла 30 KB


Размер: 376 MB
Хэш (hash) релиза: 5d39dddd9baa717fe6bbf412351245748b09d341

Еще никто не оставлял запись к записи скачать торрент Richie Sambora - Aftermath Of The Lowdown - 2012, FLAC . Будь первым!

!Обратная связь