Скачать через торрент Вот почему без Эроса жизнь мне не мила! So, I Cant Play H! Фильм бесплатно в хорошем качестве torrent

Скачивайте на UnionPeer.org фильмы через торрент без регистрации. Новинки кино в хорошем качестве через торрент. На UnionPeer.org можно скачать через торрент фильмы 2014 и 2015 годов. Самые новые фильмы.

Скачать торрент Вот почему без Эроса жизнь мне не мила! So, I Cant Play H! бесплатно через .torrent фильм мультфильм сериал

Если у вас наблюдаются проблемы со скриншотами, переходом по ссылками, скачиванием торрентов - проблемы в блокировщике рекламы AdBlock. #хорошегоДня!


Статистика раздачи
Размер:  1.8 GB   |    Зарегистрирован:  4 года 10 месяцев   |    .torrent скачан:  216 раз   |   
Раздают:  1  
   
Загрузка...
 
Автор Сообщение

Galfimbul

avatar Galfimbul


Вот почему без Эроса жизнь мне не мила!
So, I Can't Play H! | Dakara Boku wa, H ga Dekinai. | だから僕は, Hができない.
Год выпуска :2012
Страна : Япония
Жанр: комедия, мистика, романтика, этти
Продолжительность : 25 мин.
Кол-во эпизодов : 1-12 из 12
Студия : Feel
Режиссёр : Такахаси Такэо/Takahashi Takeo/高橋丈夫
Субтитры : нет
Перевод : Любительский(RUS - двухголосый, закадровый [Ancord & NikaLenina ])
Описание : Молодая синигами, богиня смерти Лисара Ресталл является в мир людей, чтобы восстановить славу и влияние своего клана. В мире сериала синигами питаются чужой энергией, причем только избранные могут удовлетворить потребности высших существ. Найти такого партнера непросто, ведь душа большинства людей мелковата, в ней нет стержня, источника внутренней силы. Гостья не знала, что судьба, которая выше богов, уже приготовила ей сюрприз в лице простого парня по имени Рёсукэ Кага. А в чем сила простого 17-летнего японского школьника? Конечно же, в… воображении! В этой области Кага непобедимый чемпион, правда, большинство одноклассниц зовут его проще – извращенцем.

Да, Рёсукэ не святой, но его эротические мечты имеют такую силу, что гордая Лисара, скрепя сердце, согласилась на временный контракт, иначе ее миссия провалилась бы. Теперь они партнеры, и каждый получил от союза что-то свое: юная богиня начала лучше понимать окружающих, а земной парень стал меньше фантазировать и получил шанс среди приключений и битв «перейти к практике». Правда, цена может оказаться высокой, ибо, как открыла гостья, в Книге Судеб ее новому знакомому отпущено не больше трех месяцев жизни. Но ведь всякие там книги, что сценарии аниме: хорошо пойдет – можно и продолжение написать!

© Hollow, World Art
Качество : HDTVRip
Формат : MP4
Видео : кодек видео H.264, разрешение видео 480x272 (16:9), битрейт ~ 768 kbps, кадров в секунду ~ 29.970 fps
Аудио : RUS - кодек аудио AAC, частота 44.1 kHz, кол-во каналов 2ch, битрейт ~ 128 kbps
Релиз от:
Адаптация серии ранобэ (коротких романов с иллюстрациями).
1)Red String of Fate!?
2)Ero is Good for the Eyes
3)Dangerous Idol
4)Bust Circumference Disparate Society
5)Invisible Dictionary
6)We Became One
7)I Want to Let Her Live
8 )Rival, Sways
9)My Kingdom Standing Tall
10)Heaven After Hell
11)Making Love Happen
12)So Please Stop Talking About Sex
General
Format : MPEG-4
Format profile : Sony PSP
Codec ID : MSNV
File size : 157 MiB
Duration : 24mn 0s
Overall bit rate : 914 Kbps

Video
ID : 1
Format : AVC
Format/Info : Advanced Video Codec
Format profile : <a href="mailto:Main@L2.1" class="postLink">Main@L2.1</a>
Format settings, CABAC : Yes
Format settings, ReFrames : 2 frames
Codec ID : avc1
Codec ID/Info : Advanced Video Coding
Duration : 24mn 0s
Bit rate mode : Variable
Bit rate : 768 Kbps
Width : 480 pixels
Height : 272 pixels
Display aspect ratio : 16:9
Frame rate mode : Constant
Frame rate : 29.970 fps
Color space : YUV
Chroma subsampling : 4:2:0
Bit depth : 8 bits
Scan type : Progressive
Bits/(Pixel*Frame) : 0.196
Stream size : 134 MiB (86%)
Writing library : x264 core 77
Encoding settings : cabac=1 / ref=2 / deblock=0:0:0 / analyse=0x1:0 / me=dia / subme=8 / psy=1 / psy_rd=1.0:0.0 / mixed_ref=0 / me_range=16 / chroma_me=0 / trellis=0 / 8x8dct=0 / cqm=0 / deadzone=21,11 / chroma_qp_offset=-2 / threads=2 / nr=0 / decimate=1 / mbaff=0 / constrained_intra=0 / bframes=0 / keyint=250 / keyint_min=25 / scenecut=0 / rc_lookahead=40 / rc=abr / mbtree=1 / bitrate=768 / ratetol=1.0 / qcomp=0.60 / qpmin=10 / qpmax=51 / qpstep=4 / ip_ratio=1.41 / aq=1:1.00

Audio
ID : 2
Format : AAC
Format/Info : Advanced Audio Codec
Format version : Version 4
Format profile : LC
Format settings, SBR : No
Codec ID : 40
Duration : 24mn 0s
Bit rate mode : Variable
Bit rate : 128 Kbps
Channel(s) : 2 channels
Channel positions : Front: L R
Sampling rate : 44.1 KHz
Stream size : 21.9 MiB (14%)
Language : Russian



Трекер:  [ 29-Сен-2012 21:01 ]

  

Скачать .torrent

Размер .torrent файла 19 KB


Размер: 1.8 GB
Хэш (hash) релиза: d26fbb77b273157451877bf3837917dc9905b388
Подписка на обновления:

Еще никто не оставлял запись к записи скачать торрент Вот почему без Эроса жизнь мне не мила! So, I Cant Play H! . Будь первым!

!Обратная связь