Скачать через торрент музыку King Crimson - Коллекция - 40th Anniversary Series бесплатно без регистрации torrent

Если у вас наблюдаются проблемы со скриншотами, переходом по ссылками, скачиванием торрентов - проблемы в блокировщике рекламы AdBlock. #хорошегоДня!


Статистика раздачи
Размер:  3.08 GB   |    Зарегистрирован:  4 года 10 месяцев   |    .torrent скачан:  40 раз   |   
Раздают:  1  
   
Загрузка...
 
Автор Сообщение

Galfimbul

avatar Galfimbul


King Crimson / Коллекция - 40th Anniversary Series (7 Albums, CD+DVD)

Жанр: Progressive Rock
Страна-производитель диска: UK
Оригинальный год издания: 1969-1981
Год издания: 2009-2011
Издатель (лейбл): Panegyric
Номера по каталогу: KCSP1-KCSP8
Страна: England
Аудиокодек: FLAC (*.flac)
Тип рипа: image+.cue
Битрейт аудио: lossless
Продолжительность: 07:19:53
Источник (релизер): Собственный
Наличие сканов в содержимом раздачи: да (Ping, 300dpi, 688Mb)

Об альбоме (сборнике): В данной Коллекции собраны ремастированные издания студийных альбомов, выпуск которых был приурочен к 40-летию группы King Crimson. 22 октября 2012 года выходит ещё один ремастированный альбом Larks' Tongues in Aspic (кат. № KCSP5) из этой же серии 40th Anniversary Series и позже будет обязательно добавлен в раздачу.
Discogs | Wikipedia | AllMusic

Amazon | Discogs
2009 Stereo Mix
Треклист:
01. 21st Century Schizoid Man - 7:24
02. I Talk To The Wind - 6:00
03. Epitaph - 8:53
04. Moonchild - 9:02
05. The Court Of The Crimson King - 9:31Bonus Track:
06. Moonchild (Full Version) - 12:16
07. I Talk To The Wind (Duo Version) - 4:56
08. I Talk To The Wind (Alternate Mix) - 6:37
09. Epitaph (Backing Track) - 9:06
10. Wind Session - 4:31

Состав:
Robert Fripp – guitar
Ian McDonald – flute, clarinet, saxophone, vibes, keyboards, mellotron
Greg Lake – bass, vocals
Michael Giles – drums, percussion
Peter Sinfield – lyrics, illumination
Exact Audio Copy V1.0 beta 3 from 29. August 2011

EAC extraction logfile from 27. September 2012, 7:44

King Crimson / In the Court of the Crimson King (40th AE)

Used drive : Optiarc DVD RW AD-5200S Adapter: 2 ID: 0

Read mode : SecureUtilize accurate stream : YesDefeat audio cache : YesMake use of C2 pointers : No

Read offset correction : 48Overread into Lead-In and Lead-Out : NoFill up missing offset samples with silence : YesDelete leading and trailing silent blocks : NoNull samples used in CRC calculations : YesUsed interface : Native Win32 interface for Win NT & 2000

Used output format : User Defined EncoderSelected bitrate : 1024 kBit/sQuality : HighAdd ID3 tag : NoCommand line compressor : C:\Program Files (x86)\Exact Audio Copy\FLAC\FLAC.EXEAdditional command line options : -8 -V -T "ARTIST=%artist%" -T "TITLE=%title%" -T "ALBUM=%albumtitle%" -T "DATE=%year%" -T "TRACKNUMBER=%tracknr%" -T "GENRE=%genre%" -T "PERFORMER=%albuminterpret%" -T "COMPOSER=%composer%" %haslyrics%--tag-from-file=LYRICS="%lyricsfile%"%haslyrics% -T "ALBUMARTIST=%albumartist%" -T "DISCNUMBER=%cdnumber%" -T "TOTALDISCS=%totalcds%" -T "TOTALTRACKS=%numtracks%" -T "COMMENT=%comment%" %source% -o %dest%

TOC of the extracted CD

Track | Start | Length | Start sector | End sector --------------------------------------------------------- 1 | 0:00.00 | 7:24.27 | 0 | 33326 2 | 7:24.27 | 6:00.24 | 33327 | 60350 3 | 13:24.51 | 8:52.43 | 60351 | 100293 4 | 22:17.19 | 9:02.27 | 100294 | 140970 5 | 31:19.46 | 9:31.23 | 140971 | 183818 6 | 40:50.69 | 12:15.48 | 183819 | 238991 7 | 53:06.42 | 4:55.70 | 238992 | 261186 8 | 58:02.37 | 6:36.42 | 261187 | 290928 9 | 64:39.04 | 9:05.42 | 290929 | 331845 10 | 73:44.46 | 4:31.11 | 331846 | 352181

Range status and errors

Selected range

Filename G:\CD\King Crimson - In the Court of the Crimson King (40th AE).wav

Peak level 100.0 % Extraction speed 4.6 X Range quality 100.0 % Test CRC 59D931C1 Copy CRC 59D931C1 Copy OK

No errors occurred

AccurateRip summary

Track 1 accurately ripped (confidence 40) [07E29215] (AR v2)Track 2 accurately ripped (confidence 39) [732CCBAE] (AR v2)Track 3 accurately ripped (confidence 39) [972AA3D0] (AR v2)Track 4 accurately ripped (confidence 39) [C599F5D3] (AR v2)Track 5 accurately ripped (confidence 38) [49005D28] (AR v2)Track 6 accurately ripped (confidence 39) [4B7B3EF3] (AR v2)Track 7 accurately ripped (confidence 39) [29D20831] (AR v2)Track 8 accurately ripped (confidence 39) [8DC11DF6] (AR v2)Track 9 accurately ripped (confidence 39) [E08578EB] (AR v2)Track 10 accurately ripped (confidence 38) [AA209ADB] (AR v2)

All tracks accurately ripped

End of status report

==== Log checksum 76FE830EC54533AB2893F55EDA419994F8D7B9EA95CB589F395546D73F65C682 ====
AUDIOCHECKER v2.0 beta (build 457) - by Dester - <a href="mailto:opdester@freemail.hu" class="postLink">opdester@freemail.hu</a>~~~~~~~~~~~~~~~~~~~~~~~~~~~~~~~~~~-=== DO NOT EDIT THIS FILE! ===-

Path: ...\CD

1 -=- King Crimson - In the Court of the Crimson King (40th AE).flac -=- CDDA (99%)

180836164

Amazon | Discogs
2010 Stereo Mix
Треклист:
01. Peace - A Beginning - 0:51
02. Pictures Of A City - 8:01
03. Cadence And Cascade - 4:38
04. In The Wake Of Poseidon - 8:26
05. Peace - A Theme - 1:15
06. Cat Food - 4:54
07. The Devil's Triangle (Part I) - 3:46
08. The Devil's Triangle (Part II) - 4:00
09. The Devil's Triangle (Part III) - 3:45
10. Peace - An End - 2:04Bonus Track:
11. Groon [2010 Mix] - 3:35
12. Peace: An End [Alternate Mix] - 2:06
13. Cadence & Cascade [Greg Lake Guide Vocal] - 4:32

Состав:
Robert Fripp – guitars, Mellotron, devices
Greg Lake – vocals
Michael Giles – drums
Peter Giles – bass
Keith Tippett – piano
Mel Collins – saxophones & flute
Gordon Haskell – vocals on "Cadence and Cascade"
Peter Sinfield – lyrics
Exact Audio Copy V1.0 beta 3 from 29. August 2011

EAC extraction logfile from 27. September 2012, 8:51

King Crimson / In The Wake Of Poseidon (40th AE)

Used drive : Optiarc DVD RW AD-5200S Adapter: 2 ID: 0

Read mode : SecureUtilize accurate stream : YesDefeat audio cache : YesMake use of C2 pointers : No

Read offset correction : 48Overread into Lead-In and Lead-Out : NoFill up missing offset samples with silence : YesDelete leading and trailing silent blocks : NoNull samples used in CRC calculations : YesUsed interface : Native Win32 interface for Win NT & 2000

Used output format : User Defined EncoderSelected bitrate : 1024 kBit/sQuality : HighAdd ID3 tag : NoCommand line compressor : C:\Program Files (x86)\Exact Audio Copy\FLAC\FLAC.EXEAdditional command line options : -8 -V -T "ARTIST=%artist%" -T "TITLE=%title%" -T "ALBUM=%albumtitle%" -T "DATE=%year%" -T "TRACKNUMBER=%tracknr%" -T "GENRE=%genre%" -T "PERFORMER=%albuminterpret%" -T "COMPOSER=%composer%" %haslyrics%--tag-from-file=LYRICS="%lyricsfile%"%haslyrics% -T "ALBUMARTIST=%albumartist%" -T "DISCNUMBER=%cdnumber%" -T "TOTALDISCS=%totalcds%" -T "TOTALTRACKS=%numtracks%" -T "COMMENT=%comment%" %source% -o %dest%

TOC of the extracted CD

Track | Start | Length | Start sector | End sector --------------------------------------------------------- 1 | 0:00.00 | 0:50.48 | 0 | 3797 2 | 0:50.48 | 8:01.08 | 3798 | 39880 3 | 8:51.56 | 4:37.55 | 39881 | 60710 4 | 13:29.36 | 8:25.72 | 60711 | 98657 5 | 21:55.33 | 1:14.61 | 98658 | 104268 6 | 23:10.19 | 4:53.66 | 104269 | 126309 7 | 28:04.10 | 3:46.29 | 126310 | 143288 8 | 31:50.39 | 4:00.36 | 143289 | 161324 9 | 35:51.00 | 3:44.67 | 161325 | 178191 10 | 39:35.67 | 2:03.66 | 178192 | 187482 11 | 41:39.58 | 3:35.26 | 187483 | 203633 12 | 45:15.09 | 2:06.28 | 203634 | 213111 13 | 47:21.37 | 4:32.17 | 213112 | 233528

Range status and errors

Selected range

Filename G:\CD\King Crimson - In The Wake Of Poseidon (40th AE).wav

Peak level 100.0 % Extraction speed 3.9 X Range quality 100.0 % Test CRC CBE4384B Copy CRC CBE4384B Copy OK

No errors occurred

AccurateRip summary

Track 1 accurately ripped (confidence 18) [D9271A3C] (AR v2)Track 2 accurately ripped (confidence 18) [7041EBBD] (AR v2)Track 3 accurately ripped (confidence 18) [94F2A36E] (AR v2)Track 4 accurately ripped (confidence 18) [E51902AF] (AR v2)Track 5 accurately ripped (confidence 18) [4C4BB1A6] (AR v2)Track 6 accurately ripped (confidence 18) [3000D4FD] (AR v2)Track 7 accurately ripped (confidence 18) [8393AFF3] (AR v2)Track 8 accurately ripped (confidence 18) [9E20C54E] (AR v2)Track 9 accurately ripped (confidence 18) [AD8E55D1] (AR v2)Track 10 accurately ripped (confidence 18) [E85C3E6A] (AR v2)Track 11 accurately ripped (confidence 18) [9F104708] (AR v2)Track 12 accurately ripped (confidence 18) [3028A7F1] (AR v2)Track 13 accurately ripped (confidence 18) [9A58238D] (AR v2)

All tracks accurately ripped

End of status report

==== Log checksum 6088CDD8B00039CAB06B2DA1477FD11FA4F2DE79F0A0CD5FC2BBE7C94C870A15 ====
AUDIOCHECKER v2.0 beta (build 457) - by Dester - <a href="mailto:opdester@freemail.hu" class="postLink">opdester@freemail.hu</a>~~~~~~~~~~~~~~~~~~~~~~~~~~~~~~~~~~-=== DO NOT EDIT THIS FILE! ===-

Path: ...\CD

1 -=- King Crimson - In The Wake Of Poseidon (40th AE).flac -=- CDDA (100%)

216429444

Amazon | Discogs
Original album new mix
Треклист:
01. Cirkus - 6:42
02. Indoor Games - 5:35
03. Happy Family - 4:17
04. Lady Of The Dancing Water - 2:49
05. Lizard - 23:35Bonus Track:
06. Lady Of The Dancing Water (Alternate Take) - 2:50
07. Bolero (From Frame By Frame) - 6:48
08. Cirkus (Studio Run Through With Guide Vocal From Original Sessions) - 6:31

Состав:
Robert Fripp – guitar, mellotron, synthesiser, organ and devices
Mel Collins – saxophone, flute
Gordon Haskell – bass guitar, vocals
Andy McCulloch – drums
Peter Sinfield – words, VCS3, pictures
Robin Miller – oboe & cor anglais
Mark Charig – cornet
Nick Evans – trombone
Keith Tippett – piano, electric piano
Jon Andersonof YES – vocals on "Prince Rupert Awakes"
Exact Audio Copy V1.0 beta 3 from 29. August 2011

EAC extraction logfile from 28. September 2012, 9:21

King Crimson / Lizard - (40th AE)

Used drive : Optiarc DVD RW AD-5200S Adapter: 2 ID: 0

Read mode : SecureUtilize accurate stream : YesDefeat audio cache : YesMake use of C2 pointers : No

Read offset correction : 48Overread into Lead-In and Lead-Out : NoFill up missing offset samples with silence : YesDelete leading and trailing silent blocks : NoNull samples used in CRC calculations : YesUsed interface : Native Win32 interface for Win NT & 2000

Used output format : User Defined EncoderSelected bitrate : 1024 kBit/sQuality : HighAdd ID3 tag : NoCommand line compressor : C:\Program Files (x86)\Exact Audio Copy\FLAC\FLAC.EXEAdditional command line options : -8 -V -T "ARTIST=%artist%" -T "TITLE=%title%" -T "ALBUM=%albumtitle%" -T "DATE=%year%" -T "TRACKNUMBER=%tracknr%" -T "GENRE=%genre%" -T "PERFORMER=%albuminterpret%" -T "COMPOSER=%composer%" %haslyrics%--tag-from-file=LYRICS="%lyricsfile%"%haslyrics% -T "ALBUMARTIST=%albumartist%" -T "DISCNUMBER=%cdnumber%" -T "TOTALDISCS=%totalcds%" -T "TOTALTRACKS=%numtracks%" -T "COMMENT=%comment%" %source% -o %dest%

TOC of the extracted CD

Track | Start | Length | Start sector | End sector --------------------------------------------------------- 1 | 0:00.00 | 6:42.11 | 0 | 30160 2 | 6:42.11 | 5:35.25 | 30161 | 55310 3 | 12:17.36 | 4:17.00 | 55311 | 74585 4 | 16:34.36 | 2:48.43 | 74586 | 87228 5 | 19:23.04 | 23:35.05 | 87229 | 193358 6 | 42:58.09 | 2:50.35 | 193359 | 206143 7 | 45:48.44 | 6:48.03 | 206144 | 236746 8 | 52:36.47 | 6:31.04 | 236747 | 266075

Range status and errors

Selected range

Filename G:\CD\King Crimson - Lizard - (40th AE).wav

Peak level 100.0 % Extraction speed 4.0 X Range quality 100.0 % Test CRC B9AF8E1F Copy CRC B9AF8E1F Copy OK

No errors occurred

AccurateRip summary

Track 1 accurately ripped (confidence 16) [40B9E09A] (AR v2)Track 2 accurately ripped (confidence 15) [A3F85FAB] (AR v2)Track 3 accurately ripped (confidence 17) [DE7BFBE4] (AR v2)Track 4 accurately ripped (confidence 17) [2260DACD] (AR v2)Track 5 accurately ripped (confidence 17) [3D02AFBC] (AR v2)Track 6 accurately ripped (confidence 17) [EBC51283] (AR v2)Track 7 accurately ripped (confidence 17) [E687D741] (AR v2)Track 8 accurately ripped (confidence 17) [C634FA9E] (AR v2)

All tracks accurately ripped

End of status report

==== Log checksum 67EEE28B0F64965A38281D31E4931FD24DA631F6EB741813993DA995AB61D41F ====
AUDIOCHECKER v2.0 beta (build 457) - by Dester - <a href="mailto:opdester@freemail.hu" class="postLink">opdester@freemail.hu</a>~~~~~~~~~~~~~~~~~~~~~~~~~~~~~~~~~~-=== DO NOT EDIT THIS FILE! ===-

Path: ...\CD

1 -=- King Crimson - Lizard - (40th AE).flac -=- CDDA (99%)

197460532

Amazon | Discogs
2010 Stereo Mix
Треклист:
01. Formentera lady - 10:17
02. Sailor's Tale - 7:35
03. The Letters - 4:29
04. Ladies Of The Road - 5:34
05. Prelude: Song Of The Gulls - 4:17
06. Islands - 12:02Bonus Track:
07. Islands (Studio Run Through With Oboe Prominent) - 2:02
08. Formentera Lady (Take 2) - 2:23
09. Sailor's Tale (Alternate Mix/Edit) - 3:37
10. A Peacemaking Stint Unrolls (Previously Unreleased) - 3:55
11. The Letters (Rehearsal/Outtake) - 2:43
12. Ladies Of The Road (Robert Fripp & David Singleton Remix) - 5:43

Состав:
Robert Fripp – guitar, mellotron, Peter's pedal harmonium, sundry implements
Mel Collins – saxophones, flutes, bass flutes
Boz Burrell – bass, lead vocals, choreography
Ian Wallace – drums, percussion & vocals
Peter Sinfield – words, sounds and visions
Keith Tippett – piano
Paulina Lucas – soprano (vocals)
Robin Miller – oboe
Mark Charig – cornet
Harry Miller – double bass
Exact Audio Copy V1.0 beta 3 from 29. August 2011

EAC extraction logfile from 28. September 2012, 9:57

King Crimson / Islands - (40th AE)

Used drive : Optiarc DVD RW AD-5200S Adapter: 2 ID: 0

Read mode : SecureUtilize accurate stream : YesDefeat audio cache : YesMake use of C2 pointers : No

Read offset correction : 48Overread into Lead-In and Lead-Out : NoFill up missing offset samples with silence : YesDelete leading and trailing silent blocks : NoNull samples used in CRC calculations : YesUsed interface : Native Win32 interface for Win NT & 2000

Used output format : User Defined EncoderSelected bitrate : 1024 kBit/sQuality : HighAdd ID3 tag : NoCommand line compressor : C:\Program Files (x86)\Exact Audio Copy\FLAC\FLAC.EXEAdditional command line options : -8 -V -T "ARTIST=%artist%" -T "TITLE=%title%" -T "ALBUM=%albumtitle%" -T "DATE=%year%" -T "TRACKNUMBER=%tracknr%" -T "GENRE=%genre%" -T "PERFORMER=%albuminterpret%" -T "COMPOSER=%composer%" %haslyrics%--tag-from-file=LYRICS="%lyricsfile%"%haslyrics% -T "ALBUMARTIST=%albumartist%" -T "DISCNUMBER=%cdnumber%" -T "TOTALDISCS=%totalcds%" -T "TOTALTRACKS=%numtracks%" -T "COMMENT=%comment%" %source% -o %dest%

TOC of the extracted CD

Track | Start | Length | Start sector | End sector --------------------------------------------------------- 1 | 0:00.00 | 10:17.08 | 0 | 46282 2 | 10:17.08 | 7:34.46 | 46283 | 80378 3 | 17:51.54 | 4:29.32 | 80379 | 100585 4 | 22:21.11 | 5:34.18 | 100586 | 125653 5 | 27:55.29 | 4:16.68 | 125654 | 144921 6 | 32:12.22 | 12:02.16 | 144922 | 199087 7 | 44:14.38 | 2:01.54 | 199088 | 208216 8 | 46:16.17 | 2:23.32 | 208217 | 218973 9 | 48:39.49 | 3:36.71 | 218974 | 235244 10 | 52:16.45 | 3:55.26 | 235245 | 252895 11 | 56:11.71 | 2:43.01 | 252896 | 265121 12 | 58:54.72 | 5:42.49 | 265122 | 290820

Range status and errors

Selected range

Filename G:\CD\King Crimson - Islands - (40th AE).wav

Peak level 100.0 % Extraction speed 4.2 X Range quality 100.0 % Test CRC E8891174 Copy CRC E8891174 Copy OK

No errors occurred

AccurateRip summary

Track 1 accurately ripped (confidence 19) [8A7F22FD] (AR v2)Track 2 accurately ripped (confidence 19) [7880276E] (AR v2)Track 3 accurately ripped (confidence 19) [DD608F38] (AR v2)Track 4 accurately ripped (confidence 19) [10AC469A] (AR v2)Track 5 accurately ripped (confidence 19) [3900C326] (AR v2)Track 6 accurately ripped (confidence 19) [8DEDA75E] (AR v2)Track 7 accurately ripped (confidence 19) [8F01F1F8] (AR v2)Track 8 accurately ripped (confidence 19) [64222628] (AR v2)Track 9 accurately ripped (confidence 19) [C398F0DB] (AR v2)Track 10 accurately ripped (confidence 19) [58E6CD63] (AR v2)Track 11 accurately ripped (confidence 19) [25C7B004] (AR v2)Track 12 accurately ripped (confidence 19) [FB91926F] (AR v2)

All tracks accurately ripped

End of status report

==== Log checksum 72DB2CE20A51A0392530999472C275AB75A081298363DF921BC8470322E0BC44 ====
AUDIOCHECKER v2.0 beta (build 457) - by Dester - <a href="mailto:opdester@freemail.hu" class="postLink">opdester@freemail.hu</a>~~~~~~~~~~~~~~~~~~~~~~~~~~~~~~~~~~-=== DO NOT EDIT THIS FILE! ===-

Path: ...\CD

1 -=- King Crimson - Islands - (40th AE).flac -=- CDDA (100%)

259912900

Amazon | Discogs
2011 Stereo Mix
Треклист:
01. The Great Deceiver - 4:02
02. Lament - 4:04
03. We'll Let You Know - 3:40
04. The Night Watch - 4:40
05. Trio - 5:40
06. The Mincer - 4:09
07. Starless And Bible Black - 9:10
08. Fracture - 11:19Bonus Track:
09. The Law Of Maximum Distress Pt 1 - 6:41
10. Improv: The Mincer - 4:22
11. The Law Of Maximum Distress Pt 2 - 2:28
12. Dr Diamond - 4:00
13. Guts On My Side - 4:30

Состав:
David Cross – violin, viola, keyboard
Robert Fripp – guitar, mellotron, devices
John Wetton – bass, voice
Bill Bruford – percussion
Exact Audio Copy V1.0 beta 3 from 29. August 2011

EAC extraction logfile from 28. September 2012, 20:05

King Crimson / Starless And Bible Black (40th AE)

Used drive : Optiarc DVD RW AD-5200S Adapter: 2 ID: 0

Read mode : SecureUtilize accurate stream : YesDefeat audio cache : YesMake use of C2 pointers : No

Read offset correction : 48Overread into Lead-In and Lead-Out : NoFill up missing offset samples with silence : YesDelete leading and trailing silent blocks : NoNull samples used in CRC calculations : YesUsed interface : Native Win32 interface for Win NT & 2000

Used output format : User Defined EncoderSelected bitrate : 1024 kBit/sQuality : HighAdd ID3 tag : NoCommand line compressor : C:\Program Files (x86)\Exact Audio Copy\FLAC\FLAC.EXEAdditional command line options : -8 -V -T "ARTIST=%artist%" -T "TITLE=%title%" -T "ALBUM=%albumtitle%" -T "DATE=%year%" -T "TRACKNUMBER=%tracknr%" -T "GENRE=%genre%" -T "PERFORMER=%albuminterpret%" -T "COMPOSER=%composer%" %haslyrics%--tag-from-file=LYRICS="%lyricsfile%"%haslyrics% -T "ALBUMARTIST=%albumartist%" -T "DISCNUMBER=%cdnumber%" -T "TOTALDISCS=%totalcds%" -T "TOTALTRACKS=%numtracks%" -T "COMMENT=%comment%" %source% -o %dest%

TOC of the extracted CD

Track | Start | Length | Start sector | End sector --------------------------------------------------------- 1 | 0:00.00 | 4:02.07 | 0 | 18156 2 | 4:02.07 | 4:04.34 | 18157 | 36490 3 | 8:06.41 | 3:40.19 | 36491 | 53009 4 | 11:46.60 | 4:40.19 | 53010 | 74028 5 | 16:27.04 | 5:39.40 | 74029 | 99493 6 | 22:06.44 | 4:09.01 | 99494 | 118169 7 | 26:15.45 | 9:10.07 | 118170 | 159426 8 | 35:25.52 | 11:18.51 | 159427 | 210327 9 | 46:44.28 | 6:41.31 | 210328 | 240433 10 | 53:25.59 | 4:21.49 | 240434 | 260057 11 | 57:47.33 | 2:27.56 | 260058 | 271138 12 | 60:15.14 | 4:00.06 | 271139 | 289144 13 | 64:15.20 | 4:30.17 | 289145 | 309411

Range status and errors

Selected range

Filename G:\CD\King Crimson - Starless And Bible Black (40th AE).wav

Peak level 98.8 % Extraction speed 4.3 X Range quality 100.0 % Test CRC 53F2B6E6 Copy CRC 53F2B6E6 Copy OK

No errors occurred

AccurateRip summary

Track 1 not present in databaseTrack 2 not present in databaseTrack 3 not present in databaseTrack 4 not present in databaseTrack 5 not present in databaseTrack 6 not present in databaseTrack 7 not present in databaseTrack 8 not present in databaseTrack 9 not present in databaseTrack 10 not present in databaseTrack 11 not present in databaseTrack 12 not present in databaseTrack 13 not present in database

None of the tracks are present in the AccurateRip database

End of status report

==== Log checksum 5EE5586F5EAA58E54CAFD12C49E5A317DB15EBD1B3EC4F708782504A4B57130C ====
AUDIOCHECKER v2.0 beta (build 457) - by Dester - <a href="mailto:opdester@freemail.hu" class="postLink">opdester@freemail.hu</a>~~~~~~~~~~~~~~~~~~~~~~~~~~~~~~~~~~-=== DO NOT EDIT THIS FILE! ===-

Path: ...\CD

1 -=- King Crimson - Starless And Bible Black (40th AE).flac -=- CDDA (100%)

15454692

Amazon | Discogs
Original Album
Треклист:
01. Red - 6:17
02. Fallen Angel - 6:03
03. One More Red Nightmare - 7:10
04. Providence - 8:11
05. Starless - 12:26Bonus Track:
06. Red (Trio Version) - 6:27
07. Fallen Angel (Instrumental Trio Version) - 6:26
08. Providence (Full Version) - 10:09

Состав:
Robert Fripp – guitar, mellotron
John Wetton – bass guitar, vocals
William Bruford – percussion
David Cross – violin
Mel Collins – soprano saxophone
Ian McDonald – alto saxophone
Robin Miller – oboe
Mark Charig – cornet
Exact Audio Copy V1.0 beta 3 from 29. August 2011

EAC extraction logfile from 28. September 2012, 20:48

King Crimson / Red - (40th AE)

Used drive : Optiarc DVD RW AD-5200S Adapter: 2 ID: 0

Read mode : SecureUtilize accurate stream : YesDefeat audio cache : YesMake use of C2 pointers : No

Read offset correction : 48Overread into Lead-In and Lead-Out : NoFill up missing offset samples with silence : YesDelete leading and trailing silent blocks : NoNull samples used in CRC calculations : YesUsed interface : Native Win32 interface for Win NT & 2000

Used output format : User Defined EncoderSelected bitrate : 1024 kBit/sQuality : HighAdd ID3 tag : NoCommand line compressor : C:\Program Files (x86)\Exact Audio Copy\FLAC\FLAC.EXEAdditional command line options : -8 -V -T "ARTIST=%artist%" -T "TITLE=%title%" -T "ALBUM=%albumtitle%" -T "DATE=%year%" -T "TRACKNUMBER=%tracknr%" -T "GENRE=%genre%" -T "PERFORMER=%albuminterpret%" -T "COMPOSER=%composer%" %haslyrics%--tag-from-file=LYRICS="%lyricsfile%"%haslyrics% -T "ALBUMARTIST=%albumartist%" -T "DISCNUMBER=%cdnumber%" -T "TOTALDISCS=%totalcds%" -T "TOTALTRACKS=%numtracks%" -T "COMMENT=%comment%" %source% -o %dest%

TOC of the extracted CD

Track | Start | Length | Start sector | End sector --------------------------------------------------------- 1 | 0:00.00 | 6:16.53 | 0 | 28252 2 | 6:16.53 | 6:03.37 | 28253 | 55514 3 | 12:20.15 | 7:09.72 | 55515 | 87761 4 | 19:30.12 | 8:10.41 | 87762 | 124552 5 | 27:40.53 | 12:26.30 | 124553 | 180532 6 | 40:07.08 | 6:27.16 | 180533 | 209573 7 | 46:34.24 | 6:26.17 | 209574 | 238540 8 | 53:00.41 | 10:08.72 | 238541 | 284212

Range status and errors

Selected range

Filename G:\CD\King Crimson - Red - (40th AE).wav

Peak level 100.0 % Extraction speed 4.2 X Range quality 100.0 % Test CRC DB6DF3B9 Copy CRC DB6DF3B9 Copy OK

No errors occurred

AccurateRip summary

Track 1 accurately ripped (confidence 19) [5AEC6AE6] (AR v2)Track 2 accurately ripped (confidence 19) [D273FFFA] (AR v2)Track 3 accurately ripped (confidence 19) [D930AAB3] (AR v2)Track 4 accurately ripped (confidence 19) [95B12A98] (AR v2)Track 5 accurately ripped (confidence 19) [79098BAE] (AR v2)Track 6 accurately ripped (confidence 19) [8A9FB6F4] (AR v2)Track 7 accurately ripped (confidence 20) [5A708D21] (AR v2)Track 8 accurately ripped (confidence 18) [F352C823] (AR v2)

All tracks accurately ripped

End of status report

==== Log checksum E9D13315EED5CCFA39AC3C6D5477832E055D38660E3EDE9D3515E50092BC584E ====
AUDIOCHECKER v2.0 beta (build 457) - by Dester - <a href="mailto:opdester@freemail.hu" class="postLink">opdester@freemail.hu</a>~~~~~~~~~~~~~~~~~~~~~~~~~~~~~~~~~~-=== DO NOT EDIT THIS FILE! ===-

Path: ...\CD

1 -=- King Crimson - Red - (40th AE).flac -=- CDDA (99%)

177841076

Amazon | Discogs
2011 Stereo Mix
Треклист:
01. Elephant Talk - 4:44
02. Frame By Frame - 5:09
03. Matte Kudasai - 3:48
04. Indiscipline - 4:34
05. Thela Hun Ginjeet - 6:26
06. The Sheltering Sky - 8:22
07. Discipline - 5:11Bonus Track:
08. Ade Vocal Loop I - 0:19
09. Ade Vocal Loop II - 0:34
10. The Sheltering Sky Alternative Mix - 8:27
11. Thela Hun Ginjeet Instrumental Mix - 6:31

Состав:
Adrian Belew – guitar, lead vocals
Robert Fripp – guitar, devices
Tony Levin – Chapman stick, bass, support vocals
Bill Bruford – batterie
Exact Audio Copy V1.0 beta 3 from 29. August 2011

EAC extraction logfile from 28. September 2012, 21:21

King Crimson / Discipline (40th AE)

Used drive : Optiarc DVD RW AD-5200S Adapter: 2 ID: 0

Read mode : SecureUtilize accurate stream : YesDefeat audio cache : YesMake use of C2 pointers : No

Read offset correction : 48Overread into Lead-In and Lead-Out : NoFill up missing offset samples with silence : YesDelete leading and trailing silent blocks : NoNull samples used in CRC calculations : YesUsed interface : Native Win32 interface for Win NT & 2000

Used output format : User Defined EncoderSelected bitrate : 1024 kBit/sQuality : HighAdd ID3 tag : NoCommand line compressor : C:\Program Files (x86)\Exact Audio Copy\FLAC\FLAC.EXEAdditional command line options : -8 -V -T "ARTIST=%artist%" -T "TITLE=%title%" -T "ALBUM=%albumtitle%" -T "DATE=%year%" -T "TRACKNUMBER=%tracknr%" -T "GENRE=%genre%" -T "PERFORMER=%albuminterpret%" -T "COMPOSER=%composer%" %haslyrics%--tag-from-file=LYRICS="%lyricsfile%"%haslyrics% -T "ALBUMARTIST=%albumartist%" -T "DISCNUMBER=%cdnumber%" -T "TOTALDISCS=%totalcds%" -T "TOTALTRACKS=%numtracks%" -T "COMMENT=%comment%" %source% -o %dest%

TOC of the extracted CD

Track | Start | Length | Start sector | End sector --------------------------------------------------------- 1 | 0:00.00 | 4:43.38 | 0 | 21262 2 | 4:43.38 | 5:09.00 | 21263 | 44437 3 | 9:52.38 | 3:47.38 | 44438 | 61500 4 | 13:40.01 | 4:34.03 | 61501 | 82053 5 | 18:14.04 | 6:25.58 | 82054 | 110986 6 | 24:39.62 | 8:22.02 | 110987 | 148638 7 | 33:01.64 | 5:10.64 | 148639 | 171952 8 | 38:12.53 | 0:18.42 | 171953 | 173344 9 | 38:31.20 | 0:33.45 | 173345 | 175864 10 | 39:04.65 | 8:26.38 | 175865 | 213852 11 | 47:31.28 | 6:31.30 | 213853 | 243207

Range status and errors

Selected range

Filename G:\CD\King Crimson - Discipline (40th AE).wav

Peak level 96.6 % Extraction speed 3.9 X Range quality 100.0 % Test CRC 35A814F7 Copy CRC 35A814F7 Copy OK

No errors occurred

AccurateRip summary

Track 1 accurately ripped (confidence 9) [74C506CE] (AR v2)Track 2 accurately ripped (confidence 9) [B5F0FACE] (AR v2)Track 3 accurately ripped (confidence 9) [D2F7E840] (AR v2)Track 4 accurately ripped (confidence 9) [847F0C37] (AR v2)Track 5 accurately ripped (confidence 9) [CB0ABA8E] (AR v2)Track 6 accurately ripped (confidence 9) [0F24A047] (AR v2)Track 7 accurately ripped (confidence 9) [55A6F785] (AR v2)Track 8 accurately ripped (confidence 9) [3C4310CA] (AR v2)Track 9 accurately ripped (confidence 9) [61471494] (AR v2)Track 10 accurately ripped (confidence 9) [5DC07CC2] (AR v2)Track 11 accurately ripped (confidence 9) [F7390006] (AR v2)

All tracks accurately ripped

End of status report

==== Log checksum E4B1BC0A879119FA231A70630000F26FF7A0363B2616935BDC6C76D403870A12 ====
AUDIOCHECKER v2.0 beta (build 457) - by Dester - <a href="mailto:opdester@freemail.hu" class="postLink">opdester@freemail.hu</a>~~~~~~~~~~~~~~~~~~~~~~~~~~~~~~~~~~-=== DO NOT EDIT THIS FILE! ===-

Path: ...\CD

1 -=- King Crimson - Discipline (40th AE).flac -=- CDDA (100%)

246554772


Трекер:  [ 30-Сен-2012 15:09 ]

  

Скачать .torrent

Размер .torrent файла 37 KB


Размер: 3.08 GB
Хэш (hash) релиза: 5ac08d8c61b1d24f88b3c0c338cd83f89fbf6701

Торренты, похожие на King Crimson - Коллекция - 40th Anniversary Series скачать торрент

Форум Название Автор Размер S L Добавлен
Зарубежный Rock ·· (Progressive Rock) King Crimson - Коллекция - 40th Anniversary Series (7 Albums, Remastered, 1969-1981, CD+DVD) - 2009-2011, MP3, 320 kbps Galfimbul 217911000208 MB 0 0 1349008800

15:40

30-Сен-12

Еще никто не оставлял запись к записи скачать торрент King Crimson - Коллекция - 40th Anniversary Series . Будь первым!

!Обратная связь