Скачать через торрент музыку El Gran Silencio - Libres y Locos - 1998, FLAC бесплатно без регистрации torrent

Если у вас наблюдаются проблемы со скриншотами, переходом по ссылками, скачиванием торрентов - проблемы в блокировщике рекламы AdBlock. #хорошегоДня!


Статистика раздачи
Размер:  381 MB   |    Зарегистрирован:  5 лет 1 месяц   |    .torrent скачан:  3 раза   |   
Раздают:  1  
   
Загрузка...
 
Автор Сообщение

Galfimbul

avatar Galfimbul


El Gran Silencio / Libres y Locos

Жанр: Latin Rock
Страна-производитель диска: Mexico
Год издания: 1998
Издатель (лейбл): EMI Music
Страна: Mexico
Аудиокодек: FLAC (*.flac)
Тип рипа: image+.cue
Битрейт аудио: lossless
Продолжительность: 00: 58: 41:
Наличие сканов в содержимом раздачи: да
Треклист:
1. Guacharaca Scratch
2. Dormir Sonando
3. Peridio
4. Decadencia
5. Contrareloj
6. Con Sangre Del Norte
7. No Sabemos Amar
8. Mitote
9. Rehilete
10. Piporro's Taconazo
11. Creaturas De Luz
12. Tonta Cancion De Amor No.2
13. Columpio
14. Libres Y Locos
Exact Audio Copy V1.0 beta 3 from 29. August 2011

EAC extraction logfile from 27. September 2012, 11:09

El Gran Silencio / Libres y Locos

Used drive : HL-DT-STDVDRAM GSA-H40N Adapter: 1 ID: 0

Read mode : SecureUtilize accurate stream : YesDefeat audio cache : YesMake use of C2 pointers : No

Read offset correction : 0Overread into Lead-In and Lead-Out : NoFill up missing offset samples with silence : YesDelete leading and trailing silent blocks : NoNull samples used in CRC calculations : YesUsed interface : Native Win32 interface for Win NT & 2000

Used output format : User Defined EncoderSelected bitrate : 128 kBit/sQuality : HighAdd ID3 tag : NoCommand line compressor : C:\Program Files\FLAC\flac.exeAdditional command line options : -8 -V %source% -T "ARTIST=%albumartist%" -T "TITLE=%title%" -T "ALBUM=%albumtitle%" -T "DATE=%year%" -T "GENRE=%genre%"

TOC of the extracted CD

Track | Start | Length | Start sector | End sector --------------------------------------------------------- 1 | 0:00.00 | 1:30.17 | 0 | 6766 2 | 1:30.17 | 3:07.43 | 6767 | 20834 3 | 4:37.60 | 6:05.37 | 20835 | 48246 4 | 10:43.22 | 3:44.03 | 48247 | 65049 5 | 14:27.25 | 4:11.10 | 65050 | 83884 6 | 18:38.35 | 3:08.42 | 83885 | 98026 7 | 21:47.02 | 4:34.08 | 98027 | 118584 8 | 26:21.10 | 3:07.05 | 118585 | 132614 9 | 29:28.15 | 3:40.30 | 132615 | 149144 10 | 33:08.45 | 2:31.10 | 149145 | 160479 11 | 35:39.55 | 5:48.57 | 160480 | 186636 12 | 41:28.37 | 3:42.60 | 186637 | 203346 13 | 45:11.22 | 1:21.48 | 203347 | 209469 14 | 46:32.70 | 12:13.70 | 209470 | 264514

Range status and errors

Selected range

Filename C:\Users\Alex\Desktop\Libres y Locos\El Gran Silencio - Libres y Locos.wav

Peak level 100.0 % Extraction speed 7.2 X Range quality 99.9 % Test CRC 3EDAF82B Copy CRC 3EDAF82B Copy OK

No errors occurred

End of status report

---- CUETools DB Plugin V2.1.3

[CTDB TOCID: cHaz6f8V5mIuPYyxUOqoWzbD2Lo-] disk not present in database, Submit result: cHaz6f8V5mIuPYyxUOqoWzbD2Lo- has been uploaded

==== Log checksum D9C46A480C1867BED1D38562AA3706E5AECE9A0172CE0B4819EFBBA556D256CD ====
-----------------------

DON'T MODIFY THIS FILE

-----------------------

PERFORMER: auCDtect Task Manager, ver. 1.5.1RC6 build 1.5.1.7Copyright (c) 2008-2010 y-soft. All rights reservedhttp://y-soft.org

ANALYZER: auCDtect: CD records authenticity detector, version 0.8.2Copyright (c) 2004 Oleg Berngardt. All rights reserved.Copyright (c) 2004 Alexander Djourik. All rights reserved.

FILE: El Gran Silencio - Libres y Locos.flac Size: 399018722 Hash: F514FEFA943842B1178B3183069C0231 Accuracy: -m0 Conclusion: CDDA 100% Signature: 2A11D0CE6CFB6A0067A6A7FD539AAC98C9292646


Трекер:  [ 30-Сен-2012 15:09 ]

  

Скачать .torrent

Размер .torrent файла 15 KB


Размер: 381 MB
Хэш (hash) релиза: 4cf3cfcf11475dce94813f993acce65941fdc5ab

Еще никто не оставлял запись к записи скачать торрент El Gran Silencio - Libres y Locos - 1998, FLAC . Будь первым!

!Обратная связь