Скачать через торрент музыку Asphalt Ballet - Asphalt Ballet - 1991, FLAC бесплатно без регистрации torrent

Если у вас наблюдаются проблемы со скриншотами, переходом по ссылками, скачиванием торрентов - проблемы в блокировщике рекламы AdBlock. #хорошегоДня!


Статистика раздачи
Размер:  401 MB   |    Зарегистрирован:  5 лет 1 месяц   |    .torrent скачан:  19 раз   |   
Раздают:  1  
   
Загрузка...
 
Автор Сообщение

Galfimbul

avatar Galfimbul


Asphalt Ballet / Asphalt Ballet

Жанр: Hard Rock / Glam
Страна-производитель диска: US
Год издания диска: 1991
Издатель (лейбл): Virgin Records
Номер по каталогу: CDVUS 44
Страна: US
Аудио кодек: FLAC (*.flac)
Тип рипа: tracks+.cue
Битрейт аудио: lossless
Продолжительность: 00:49:59
Источник (релизер): what.cd
Наличие сканов в содержимом раздачи: да

Треклист:
01. Hell's Kitchen
02. Soul Survive
03. Tuesday's Rain
04. Unlucky Mr. Lucky
05. End Of My Rope
06. Heaven Winds Blow
07. Blood On The Highway
08. Goodbye Yesterday
09. Wasted Time
10. Taking A Walk
11. Hangman Swing
12. Blue Movie
13. Do It All Over Again
EAC extraction logfile from 24. June 2006, 12:34 for CD

Asphalt Ballet / Asphalt Ballet

Used drive : HL-DT-STDVDRAM GSA-4082N Adapter: 1 ID: 0

Read mode : Secure with NO C2, accurate stream, disable cache

Read offset correction : 667

Overread into Lead-In and Lead-Out : No

Used output format : Internal WAV Routines

44.100 Hz; 16 Bit; Stereo

Other options :

Fill up missing offset samples with silence : Yes

Delete leading and trailing silent blocks : No

Installed external ASPI interface

Track 1

Filename C:\Documents and Settings\Family\Desktop\RIP\Asphalt Ballet\01 - Hell's Kitchen - Asphalt Ballet.wav

Pre-gap length 0:00:02.49

Peak level 100.0 %

Track quality 100.0 %

Test CRC 33979013

Copy CRC 33979013

Copy OK

Track 2

Filename C:\Documents and Settings\Family\Desktop\RIP\Asphalt Ballet\02 - Soul Survive - Asphalt Ballet.wav

Pre-gap length 0:00:01.04

Peak level 100.0 %

Track quality 100.0 %

Test CRC FBA4E575

Copy CRC FBA4E575

Copy OK

Track 3

Filename C:\Documents and Settings\Family\Desktop\RIP\Asphalt Ballet\03 - Tuesday's Rain - Asphalt Ballet.wav

Pre-gap length 0:00:01.24

Peak level 100.0 %

Track quality 100.0 %

Test CRC D20901D7

Copy CRC D20901D7

Copy OK

Track 4

Filename C:\Documents and Settings\Family\Desktop\RIP\Asphalt Ballet\04 - Unlucky Mr. Lucky - Asphalt Ballet.wav

Pre-gap length 0:00:01.26

Peak level 100.0 %

Track quality 100.0 %

Test CRC E85CFF75

Copy CRC E85CFF75

Copy OK

Track 5

Filename C:\Documents and Settings\Family\Desktop\RIP\Asphalt Ballet\05 - End Of My Rope - Asphalt Ballet.wav

Pre-gap length 0:00:01.00

Peak level 100.0 %

Track quality 100.0 %

Test CRC 2895A0D8

Copy CRC 2895A0D8

Copy OK

Track 6

Filename C:\Documents and Settings\Family\Desktop\RIP\Asphalt Ballet\06 - Heaven Winds Blow - Asphalt Ballet.wav

Pre-gap length 0:00:01.93

Peak level 100.0 %

Track quality 100.0 %

Test CRC D829246D

Copy CRC D829246D

Copy OK

Track 7

Filename C:\Documents and Settings\Family\Desktop\RIP\Asphalt Ballet\07 - Blood On The Highway - Asphalt Ballet.wav

Pre-gap length 0:00:01.49

Peak level 99.9 %

Track quality 100.0 %

Test CRC B8C3606C

Copy CRC B8C3606C

Copy OK

Track 8

Filename C:\Documents and Settings\Family\Desktop\RIP\Asphalt Ballet\08 - Goodbye Yesterday - Asphalt Ballet.wav

Pre-gap length 0:00:00.06

Peak level 100.0 %

Track quality 100.0 %

Test CRC B09731F8

Copy CRC B09731F8

Copy OK

Track 9

Filename C:\Documents and Settings\Family\Desktop\RIP\Asphalt Ballet\09 - Wasted Time - Asphalt Ballet.wav

Pre-gap length 0:00:03.13

Peak level 100.0 %

Track quality 100.0 %

Test CRC A99567EA

Copy CRC A99567EA

Copy OK

Track 10

Filename C:\Documents and Settings\Family\Desktop\RIP\Asphalt Ballet\10 - Taking A Walk - Asphalt Ballet.wav

Pre-gap length 0:00:01.02

Peak level 100.0 %

Track quality 100.0 %

Test CRC 084143DF

Copy CRC 084143DF

Copy OK

Track 11

Filename C:\Documents and Settings\Family\Desktop\RIP\Asphalt Ballet\11 - Hangman Swing - Asphalt Ballet.wav

Pre-gap length 0:00:00.62

Peak level 100.0 %

Track quality 100.0 %

Test CRC 01B80420

Copy CRC 01B80420

Copy OK

Track 12

Filename C:\Documents and Settings\Family\Desktop\RIP\Asphalt Ballet\12 - Blue Movie - Asphalt Ballet.wav

Pre-gap length 0:00:00.02

Peak level 100.0 %

Track quality 100.0 %

Test CRC 3751E081

Copy CRC 3751E081

Copy OK

Track 13

Filename C:\Documents and Settings\Family\Desktop\RIP\Asphalt Ballet\13 - Do It All Over Again - Asphalt Ballet.wav

Pre-gap length 0:00:00.40

Peak level 94.5 %

Track quality 100.0 %

Test CRC 415C63C1

Copy CRC 415C63C1

Copy OK

No errors occured

End of status report
REM GENRE "Hard Rock"

REM DATE 1991

REM DISCID AD0BBE0D

REM COMMENT "ExactAudioCopy v0.95b4"

PERFORMER "Asphalt Ballet"

TITLE "Asphalt Ballet"

FILE "01 - Hell's Kitchen - Asphalt Ballet.wav" WAVE

TRACK 01 AUDIO

TITLE "Hell's Kitchen"

PERFORMER "Asphalt Ballet"

PREGAP 00:00:37

INDEX 01 00:00:00

TRACK 02 AUDIO

TITLE "Soul Survive"

PERFORMER "Asphalt Ballet"

INDEX 00 02:56:65

FILE "02 - Soul Survive - Asphalt Ballet.wav" WAVE

INDEX 01 00:00:00

TRACK 03 AUDIO

TITLE "Tuesday's Rain"

PERFORMER "Asphalt Ballet"

INDEX 00 04:24:02

FILE "03 - Tuesday's Rain - Asphalt Ballet.wav" WAVE

INDEX 01 00:00:00

TRACK 04 AUDIO

TITLE "Unlucky Mr. Lucky"

PERFORMER "Asphalt Ballet"

INDEX 00 04:19:57

FILE "04 - Unlucky Mr. Lucky - Asphalt Ballet.wav" WAVE

INDEX 01 00:00:00

TRACK 05 AUDIO

TITLE "End Of My Rope"

PERFORMER "Asphalt Ballet"

INDEX 00 03:48:38

FILE "05 - End Of My Rope - Asphalt Ballet.wav" WAVE

INDEX 01 00:00:00

TRACK 06 AUDIO

TITLE "Heaven Winds Blow"

PERFORMER "Asphalt Ballet"

INDEX 00 04:04:60

FILE "06 - Heaven Winds Blow - Asphalt Ballet.wav" WAVE

INDEX 01 00:00:00

TRACK 07 AUDIO

TITLE "Blood On The Highway"

PERFORMER "Asphalt Ballet"

INDEX 00 03:56:35

FILE "07 - Blood On The Highway - Asphalt Ballet.wav" WAVE

INDEX 01 00:00:00

TRACK 08 AUDIO

TITLE "Goodbye Yesterday"

PERFORMER "Asphalt Ballet"

INDEX 00 04:01:38

FILE "08 - Goodbye Yesterday - Asphalt Ballet.wav" WAVE

INDEX 01 00:00:00

TRACK 09 AUDIO

TITLE "Wasted Time"

PERFORMER "Asphalt Ballet"

INDEX 00 04:34:27

FILE "09 - Wasted Time - Asphalt Ballet.wav" WAVE

INDEX 01 00:00:00

TRACK 10 AUDIO

TITLE "Taking A Walk"

PERFORMER "Asphalt Ballet"

INDEX 00 03:41:73

FILE "10 - Taking A Walk - Asphalt Ballet.wav" WAVE

INDEX 01 00:00:00

TRACK 11 AUDIO

TITLE "Hangman Swing"

PERFORMER "Asphalt Ballet"

INDEX 00 04:06:18

FILE "11 - Hangman Swing - Asphalt Ballet.wav" WAVE

INDEX 01 00:00:00

TRACK 12 AUDIO

TITLE "Blue Movie"

PERFORMER "Asphalt Ballet"

INDEX 00 03:43:28

FILE "12 - Blue Movie - Asphalt Ballet.wav" WAVE

INDEX 01 00:00:00

TRACK 13 AUDIO

TITLE "Do It All Over Again"

PERFORMER "Asphalt Ballet"

INDEX 00 03:53:20

FILE "13 - Do It All Over Again - Asphalt Ballet.wav" WAVE

INDEX 01 00:00:00
Асфальтовый балет – так называется авария, в которой мотоциклист, вылетев с байка, пропахивает шоссе на высокой скорости. Аналогичное имя – "Asphalt Ballet", получила команда из Сан-Диего, исповедовавшая приблюзованный хард-рок, родственный по духу "Motley Crue", "Aerosmith" и "Guns N' Roses". Стартуй группа несколько пораньше, она могла бы иметь неплохой успех, но позднее зажигание оставило ее за бортом большого шоу-бизнеса. Образовался проект на заре 90-х, а в его исходный состав вошли Гэри Джеффрис (экс-"Broken Rule"; вокал) и несколько бывших участников "Mistreated", Дэнни Кларк (гитара), Джулиус Джей Ульрих (гитара), Терри Филлипс (бас) и Микки Кайнер (ударные).
Добравшись до Лос-Анджелеса, квинтет навел немало шороху в барах Сансет Стрип, так что, в конце концов, музыкантами заинтересовались мажоры из "Virgin Records". В 1991-м был заключен контракт, и в том же году вышел спродюсированный Грегом Эдвардом дебютник "Asphalt Ballet".
Среди тринадцати треков находились типичные для того времени рок-боевики "Hell's Kitchen", "Unlucky Mr. Lucky", "Taking A Walk", в то время как на медляке "Wasted Time" и закрывающем акустическо-блюзовом треке "Do It All Over Again" была представлена более спокойная сторона творчества асфальтобалетчиков. Наиболее же интересными получились среднетемповые вещи "Soul Survive", "Tuesday's Rain", "Goodbye Yesterday", причем первые две из них успели энное количество раз прокрутиться в эфире, в том числе и эмтивишном. Большинство композиций принадлежали перу Кларка и Ульриха, и лишь в паре мест отметился Джеффрис.е вем в чем
Julius Ulrich : Гитара
Danny Clarke : Гитара
Terry Phillips : Бас-гитара
Mikki Kiner : Барабаны
Gary Jeffries : Вокал, Harmonica


Трекер:  [ 30-Сен-2012 15:09 ]

  

Скачать .torrent

Размер .torrent файла 33 KB


Размер: 401 MB
Хэш (hash) релиза: bb50bdb63e233abe121a85181e5c360a6321e743

Еще никто не оставлял запись к записи скачать торрент Asphalt Ballet - Asphalt Ballet - 1991, FLAC . Будь первым!

!Обратная связь