Скачать через торрент музыку The Invisible Band - Its Music, Jim. But Not As We Know It - 2004, FLAC бесплатно без регистрации torrent

Если у вас наблюдаются проблемы со скриншотами, переходом по ссылками, скачиванием торрентов - проблемы в блокировщике рекламы AdBlock. #хорошегоДня!


Статистика раздачи
Размер:  481 MB   |    Зарегистрирован:  4 года 10 месяцев   |    .torrent скачан:  7 раз   |   
Раздают:  1  
   
Загрузка...
 
Автор Сообщение

Galfimbul

avatar Galfimbul


The Invisible Band / It's Music, Jim. But Not As We Know It

Жанр: Progressive / Space Rock
Страна-производитель диска: UK
Год издания: 2004
Издатель (лейбл): Ethereal Music
Номер по каталогу: EM - 062
Страна: UK
Аудиокодек: FLAC (*.flac)
Тип рипа: image+.cue
Битрейт аудио: lossless
Продолжительность: 00:59:35
Источник (релизер): собственный диск
Наличие сканов в содержимом раздачи: нет
Треклист:
1. Llamadome
2. Underworld
3. Seven League Boots
4. Sports Model
5. Locomotive
Exact Audio Copy V0.99 prebeta 5 from 4. May 2009

Отчёт EAC об извлечении, выполненном 26. сентября 2012, 17:15

The Invisible Band / It's Music, Jim. But Not As We Know It

Дисковод: ASUS DRW-24B3ST Adapter: 1 ID: 0

Режим чтения : ДостоверностьИспользование точного потока : ДаОтключение кэша аудио : ДаИспользование указателей C2 : Нет

Коррекция смещения при чтении : 6Способность читать области Lead-in и Lead-out : НетЗаполнение пропущенных сэмплов тишиной : ДаУдаление блоков с тишиной в начале и конце : НетПри вычислениях CRC использовались нулевые сэмплы : ДаИнтерфейс : Встроенный Win32-интерфейс для Win NT/2000

Выходной формат : Внутренние WAV-операцииФормат сэмплов : 44.100 Гц; 16 бит; стерео

TOC извлечённого CD

Трек | Старт | Длительность | Начальный сектор | Конечный сектор --------------------------------------------------------------------- 1 | 0:00.00 | 14:06.57 | 0 | 63506 2 | 14:06.57 | 7:15.45 | 63507 | 96176 3 | 21:22.27 | 15:30.25 | 96177 | 165951 4 | 36:52.52 | 7:59.00 | 165952 | 201876 5 | 44:51.52 | 14:51.32 | 201877 | 268733

Характеристики диапазона извлечения и сообщения об ошибках

Выбранный диапазон

Имя файла E:\The Invisible Band - It's Music, Jim. But Not As We Know It.wav

Пиковый уровень 89.0 % Качество диапазона 100.0 % CRC теста EE7D5C2A CRC копии EE7D5C2A Копирование... OK

Ошибок не произошло

AccurateRip: сводка

Трек 1 точное извлечение (доверие 1) [DB21CA32]Трек 2 точное извлечение (доверие 1) [A19D75BA]Трек 3 точное извлечение (доверие 1) [6C9A4A85]Трек 4 точное извлечение (доверие 1) [DF310A1B]Трек 5 точное извлечение (доверие 1) [51C6D86E]

Все треки извлечены точно

Конец отчёта
REM GENRE SpaceREM DATE 2004REM DISCID 420DFF05REM COMMENT "ExactAudioCopy v0.99pb5"PERFORMER "The Invisible Band"TITLE "It's Music, Jim. But Not As We Know It"FILE "The Invisible Band - It's Music, Jim. But Not As We Know It.flac" WAVE TRACK 01 AUDIO TITLE "Llamadome" PERFORMER "The Invisible Band" FLAGS DCP INDEX 01 00:00:00 TRACK 02 AUDIO TITLE "Underworld" PERFORMER "The Invisible Band" FLAGS DCP INDEX 00 14:04:57 INDEX 01 14:06:57 TRACK 03 AUDIO TITLE "Seven League Boots" PERFORMER "The Invisible Band" FLAGS DCP INDEX 00 21:20:27 INDEX 01 21:22:27 TRACK 04 AUDIO TITLE "Sports Model" PERFORMER "The Invisible Band" FLAGS DCP INDEX 00 36:50:52 INDEX 01 36:52:52 TRACK 05 AUDIO TITLE "Locomotive" PERFORMER "The Invisible Band" FLAGS DCP INDEX 00 44:49:52 INDEX 01 44:51:52
Started at: n?aaa, 26. 09. 2012. - 23:33.151 file found

1 -===- E:\The Invisible Band - It's Music, Jim. But Not As We Know It\The Invisible Band - It's Music, Jim. But Not As We Know It.flac Extracted successfully Conclusion: this track is CDDA with probability 100% Tempfile successfully deleted.

Finished at: n?aaa, 26. 09. 2012. - 23:35.26 (operation time: 0:02.11)
Доп. информация:
More About Album
Official Site

Трекер:  [ 27-Сен-2012 19:11 ]

  

Скачать .torrent

Размер .torrent файла 151 KB


Размер: 481 MB
Хэш (hash) релиза: b36d46c6ba1cc8ebca7f263bc96b84b69865938e

Еще никто не оставлял запись к записи скачать торрент The Invisible Band - Its Music, Jim. But Not As We Know It - 2004, FLAC . Будь первым!

!Обратная связь