Скачать через торрент музыку Aina - Living In A Boys World бесплатно без регистрации torrent

Если у вас наблюдаются проблемы со скриншотами, переходом по ссылками, скачиванием торрентов - проблемы в блокировщике рекламы AdBlock. #хорошегоДня!


Статистика раздачи
Размер:  460 MB   |    Зарегистрирован:  5 лет   |    .torrent скачан:  11 раз   |   
Раздают:  1  
   
Загрузка...
 
Автор Сообщение

Galfimbul

avatar Galfimbul


Aina / Living In A Boy's World
Жанр: Melodic Rock
Страна-производитель диска: Germany
Год издания: 2005
Издатель (лейбл): MTM Classix
Номер по каталогу: 0681-143
Страна: Norway
Аудиокодек: APE (*.ape)
Тип рипа: image+.cue
Битрейт аудио: lossless
Продолжительность: 60:13
Источник (релизер): Свой рип с оригинального CD
Наличие сканов в содержимом раздачи: 300dpi
Tracks:
01. Intro
02. Rocks Off
03. I Must Be In Love
04. Believe In Me
05. Shot Down In Flames
06. You Baby You
07. Living In A Boy's World
08. A Love Forever Story
09. I Need To Know
10. Pleasure & Pain
Bonus Tracks
11. Save Me Father
12. It's Raining It's Pouring
13. Too Good To Be True
14. If I Can't Have You
15. Shake You Good

Personnel:
Aina Olsen - vocals
Rolf Graf - programming, keyboards
Sven Dag Hauge - guitars
Marius Miller - guitars
Exact Audio Copy V0.99 prebeta 4 from 23. January 2008

Отчёт EAC об извлечении, выполненном 26. марта 2012, 19:27

Aina / Living In A Boy's World

Дисковод: ASUS DRW-22B2L b Adapter: 0 ID: 0

Режим чтения : ДостоверностьИспользование точного потока : ДаОтключение кэша аудио : ДаИспользование указателей C2 : Нет

Коррекция смещения при чтении : 6Способность читать области Lead-in и Lead-out : НетЗаполнение пропущенных сэмплов тишиной : ДаУдаление блоков с тишиной в начале и конце : НетПри вычислениях CRC использовались нулевые сэмплы : ДаИнтерфейс : Встроенный Win32-интерфейс для Win NT/2000

Выходной формат : Внутренние WAV-операцииФормат сэмплов : 44.100 Гц; 16 бит; стерео

TOC извлечённого CD

Трек | Старт | Длительность | Начальный сектор | Конечный сектор --------------------------------------------------------------------- 1 | 0:00.00 | 0:26.67 | 0 | 2016 2 | 0:26.67 | 4:34.27 | 2017 | 22593 3 | 5:01.19 | 3:55.32 | 22594 | 40250 4 | 8:56.51 | 4:48.51 | 40251 | 61901 5 | 13:45.27 | 3:34.74 | 61902 | 78025 6 | 17:20.26 | 3:59.51 | 78026 | 96001 7 | 21:20.02 | 3:59.05 | 96002 | 113931 8 | 25:19.07 | 4:12.17 | 113932 | 132848 9 | 29:31.24 | 4:03.43 | 132849 | 151116 10 | 33:34.67 | 4:19.55 | 151117 | 170596 11 | 37:54.47 | 4:33.62 | 170597 | 191133 12 | 42:28.34 | 4:33.39 | 191134 | 211647 13 | 47:01.73 | 4:30.73 | 211648 | 231970 14 | 51:32.71 | 4:20.50 | 231971 | 251520 15 | 55:53.46 | 4:20.08 | 251521 | 271028

Характеристики диапазона извлечения и сообщения об ошибках

Выбранный диапазон

Имя файла C:\Documents and Settings\booddoom\Рабочий стол\Новая папка\Aina - Living In A Boy's World.wav

Пиковый уровень 100.0 % Качество диапазона 100.0 % CRC теста CF762D1A CRC копии CF762D1A Копирование... OK

Ошибок не произошло

AccurateRip: сводка

Трек 1 нет в базе данныхТрек 2 нет в базе данныхТрек 3 нет в базе данныхТрек 4 нет в базе данныхТрек 5 нет в базе данныхТрек 6 нет в базе данныхТрек 7 точное извлечение (доверие 1) [0C1E7DFF]Трек 8 точное извлечение (доверие 1) [C090B2BA]Трек 9 точное извлечение (доверие 1) [0E89D5D5]Трек 10 точное извлечение (доверие 1) [ADF952A5]Трек 11 точное извлечение (доверие 1) [EDDB22E9]Трек 12 точное извлечение (доверие 1) [43DE97A7]Трек 13 точное извлечение (доверие 1) [FAFAA600]Трек 14 точное извлечение (доверие 1) [DB92CE9E]Трек 15 точное извлечение (доверие 1) [E39101FA]

9 трек(и) скопированы точно 6 трек(и) не содержатся в базе AccurateRip

Некоторые треки не прошли проверку на точность

Конец отчёта


Трекер:  [ 27-Сен-2012 19:11 ]

  

Скачать .torrent

Размер .torrent файла 19 KB


Размер: 460 MB
Хэш (hash) релиза: 6f900b54f354ef377d3b44a128f8b0aca9310ecd

Еще никто не оставлял запись к записи скачать торрент Aina - Living In A Boys World . Будь первым!

!Обратная связь