Скачать через торрент музыку Terra Nova - Make My Day бесплатно без регистрации torrent

Если у вас наблюдаются проблемы со скриншотами, переходом по ссылками, скачиванием торрентов - проблемы в блокировщике рекламы AdBlock. #хорошегоДня!


Статистика раздачи
Размер:  364 MB   |    Зарегистрирован:  4 года 10 месяцев   |    .torrent скачан:  8 раз   |   
Раздают:  1  
   
Загрузка...
 
Автор Сообщение

Galfimbul

avatar Galfimbul


Terra Nova / Make My Day
Жанр: Melodic Hard Rock
Страна-производитель диска: Japan
Год издания: 1999
Издатель (лейбл): Victor Entertainment
Номер по каталогу: VICP-60625
Страна: Netherlands
Аудиокодек: APE (*.ape)
Тип рипа: image+.cue
Битрейт аудио: lossless
Продолжительность: 46:59
Источник (релизер): Свой рип с оригинального CD
Наличие сканов в содержимом раздачи: 300dpi
Tracks:
01. Lovesick
02. Make My Day
03. Eye To Eye
04. Here's To You
05. Anomaly
06. Wild Thing
07. I Can't Wait
08. Nothing
09. Where I Stand
10. I Will Be There
11. Promise You Wait
12. How
Exact Audio Copy V0.99 prebeta 4 from 23. January 2008

Отчёт EAC об извлечении, выполненном 25. сентября 2012, 19:30

Terra Nova / Make My Day

Дисковод: ASUS DRW-22B2L b Adapter: 0 ID: 0

Режим чтения : ДостоверностьИспользование точного потока : ДаОтключение кэша аудио : ДаИспользование указателей C2 : Нет

Коррекция смещения при чтении : 6Способность читать области Lead-in и Lead-out : НетЗаполнение пропущенных сэмплов тишиной : ДаУдаление блоков с тишиной в начале и конце : НетПри вычислениях CRC использовались нулевые сэмплы : ДаИнтерфейс : Встроенный Win32-интерфейс для Win NT/2000

Выходной формат : Внутренние WAV-операцииФормат сэмплов : 44.100 Гц; 16 бит; стерео

TOC извлечённого CD

Трек | Старт | Длительность | Начальный сектор | Конечный сектор --------------------------------------------------------------------- 1 | 0:00.37 | 4:28.60 | 37 | 20196 2 | 4:29.22 | 3:41.05 | 20197 | 36776 3 | 8:10.27 | 3:37.03 | 36777 | 53054 4 | 11:47.30 | 4:27.12 | 53055 | 73091 5 | 16:14.42 | 3:22.03 | 73092 | 88244 6 | 19:36.45 | 3:52.15 | 88245 | 105659 7 | 23:28.60 | 3:23.25 | 105660 | 120909 8 | 26:52.10 | 3:50.57 | 120910 | 138216 9 | 30:42.67 | 3:41.25 | 138217 | 154816 10 | 34:24.17 | 3:22.65 | 154817 | 170031 11 | 37:47.07 | 4:21.35 | 170032 | 189641 12 | 42:08.42 | 4:51.18 | 189642 | 211484

Характеристики диапазона извлечения и сообщения об ошибках

Выбранный диапазон

Имя файла D:\booddoom\Terra Nova - Make My Day.wav

Пиковый уровень 99.9 % Качество диапазона 100.0 % CRC теста 60937BFB CRC копии 60937BFB Копирование... OK

Ошибок не произошло

AccurateRip: сводка

Трек 1 нет в базе данныхТрек 2 нет в базе данныхТрек 3 нет в базе данныхТрек 4 нет в базе данныхТрек 5 нет в базе данныхТрек 6 нет в базе данныхТрек 7 нет в базе данныхТрек 8 нет в базе данныхТрек 9 нет в базе данныхТрек 10 нет в базе данныхТрек 11 нет в базе данныхТрек 12 нет в базе данных

Ни одного трека нет в базе AccurateRip

Конец отчёта
REM DISCID A00B030CREM COMMENT "ExactAudioCopy v0.99pb4"PERFORMER "Terra Nova"TITLE "Make My Day"FILE "Terra Nova - Make My Day.wav" WAVE TRACK 01 AUDIO TITLE "Lovesick" PERFORMER "Terra Nova" INDEX 00 00:00:00 INDEX 01 00:00:37 TRACK 02 AUDIO TITLE "Make My Day" PERFORMER "Terra Nova" INDEX 00 04:27:61 INDEX 01 04:29:22 TRACK 03 AUDIO TITLE "Eye To Eye" PERFORMER "Terra Nova" INDEX 00 08:08:66 INDEX 01 08:10:27 TRACK 04 AUDIO TITLE "Here's To You" PERFORMER "Terra Nova" INDEX 00 11:45:68 INDEX 01 11:47:30 TRACK 05 AUDIO TITLE "Anomaly" PERFORMER "Terra Nova" INDEX 00 16:13:06 INDEX 01 16:14:42 TRACK 06 AUDIO TITLE "Wild Thing" PERFORMER "Terra Nova" INDEX 00 19:35:08 INDEX 01 19:36:45 TRACK 07 AUDIO TITLE "I Can't Wait" PERFORMER "Terra Nova" INDEX 00 23:27:23 INDEX 01 23:28:60 TRACK 08 AUDIO TITLE "Nothing" PERFORMER "Terra Nova" INDEX 00 26:50:48 INDEX 01 26:52:10 TRACK 09 AUDIO TITLE "Where I Stand" PERFORMER "Terra Nova" INDEX 00 30:41:31 INDEX 01 30:42:67 TRACK 10 AUDIO TITLE "I Will Be There" PERFORMER "Terra Nova" INDEX 00 34:22:57 INDEX 01 34:24:17 TRACK 11 AUDIO TITLE "Promise You Wait" PERFORMER "Terra Nova" INDEX 00 37:45:46 INDEX 01 37:47:07 TRACK 12 AUDIO TITLE "How" PERFORMER "Terra Nova" INDEX 00 42:07:06 INDEX 01 42:08:42


Трекер:  [ 27-Сен-2012 19:10 ]

  

Скачать .torrent

Размер .torrent файла 16 KB


Размер: 364 MB
Хэш (hash) релиза: 720d4dc50b5185cd88e902ae90abc77795d837d7

Еще никто не оставлял запись к записи скачать торрент Terra Nova - Make My Day . Будь первым!

!Обратная связь