Скачать через торрент музыку Scarecrow - Scarecrow - 1992 бесплатно без регистрации torrent

Если у вас наблюдаются проблемы со скриншотами, переходом по ссылками, скачиванием торрентов - проблемы в блокировщике рекламы AdBlock. #хорошегоДня!


Статистика раздачи
Размер:  292 MB   |    Зарегистрирован:  4 года 10 месяцев   |    .torrent скачан:  11 раз   |   
Раздают:  1  
   
Загрузка...
 
Автор Сообщение

Galfimbul

avatar Galfimbul


Scarecrow / Scarecrow
Жанр: Melodic Hard Rock
Страна-производитель диска: Japan
Год издания: 1992
Издатель (лейбл): FEMS/Red Lights Records
Номер по каталогу: APCY-8084
Страна: USA
Аудиокодек: APE (*.ape)
Тип рипа: image+.cue
Битрейт аудио: lossless
Продолжительность: 39:21
Источник (релизер): Свой рип с оригинального CD
Наличие сканов в содержимом раздачи: 300dpi
Tracks:
01. Till The Day I Die
02. Runaway Renee
03. Waiting
04. Brother Louie
05. The Heart Is A Lonely Hunter
06. Last Time For Love
07. Sweet Sissy
08. Mine All Mine
09. Bang Bang
10. Love Love Me Do

Personnel:
John Blaze - lead and backing vocals
Bobby Marks - drums
T.J. Jordan - lead guitar
Rex Lengyel - bass

Additional Musicians:
Eddie Ojeda
J.P. Quinn
Joe Chinnici
Jin Harris
Rick Anthony
Dvoskin
Rob Woebber
Exact Audio Copy V0.99 prebeta 4 from 23. January 2008

Отчёт EAC об извлечении, выполненном 5. августа 2011, 16:10

Scarecrow / Scarecrow

Дисковод: ASUS DRW-22B2L b Adapter: 0 ID: 0

Режим чтения : ДостоверностьИспользование точного потока : ДаОтключение кэша аудио : ДаИспользование указателей C2 : Нет

Коррекция смещения при чтении : 6Способность читать области Lead-in и Lead-out : НетЗаполнение пропущенных сэмплов тишиной : ДаУдаление блоков с тишиной в начале и конце : НетПри вычислениях CRC использовались нулевые сэмплы : ДаИнтерфейс : Встроенный Win32-интерфейс для Win NT/2000

Выходной формат : Внутренние WAV-операцииФормат сэмплов : 44.100 Гц; 16 бит; стерео

TOC извлечённого CD

Трек | Старт | Длительность | Начальный сектор | Конечный сектор --------------------------------------------------------------------- 1 | 0:00.37 | 4:39.25 | 37 | 20986 2 | 4:39.62 | 4:45.05 | 20987 | 42366 3 | 9:24.67 | 4:10.18 | 42367 | 61134 4 | 13:35.10 | 4:26.22 | 61135 | 81106 5 | 18:01.32 | 3:55.73 | 81107 | 98804 6 | 21:57.30 | 3:16.50 | 98805 | 113554 7 | 25:14.05 | 3:38.10 | 113555 | 129914 8 | 28:52.15 | 3:29.47 | 129915 | 145636 9 | 32:21.62 | 3:40.28 | 145637 | 162164 10 | 36:02.15 | 3:19.07 | 162165 | 177096

Характеристики диапазона извлечения и сообщения об ошибках

Выбранный диапазон

Имя файла C:\Documents and Settings\booddoom\Рабочий стол\Новая папка\Scarecrow - Scarecrow.wav

Пиковый уровень 100.0 % Качество диапазона 99.9 % CRC теста 0D548CD9 CRC копии 0D548CD9 Копирование... OK

Ошибок не произошло

AccurateRip: сводка

Трек 1 нет в базе данныхТрек 2 нет в базе данныхТрек 3 нет в базе данныхТрек 4 нет в базе данныхТрек 5 нет в базе данныхТрек 6 нет в базе данныхТрек 7 нет в базе данныхТрек 8 нет в базе данныхТрек 9 нет в базе данныхТрек 10 нет в базе данных

Ни одного трека нет в базе AccurateRip

Конец отчёта
REM GENRE "Hard Rock"REM DATE 1992REM DISCID 8209390AREM COMMENT "ExactAudioCopy v0.99pb4"PERFORMER "Scarecrow"TITLE "Scarecrow"FILE "Scarecrow - Scarecrow.wav" WAVE TRACK 01 AUDIO TITLE "Till The Day I Die" PERFORMER "Scarecrow" INDEX 00 00:00:00 INDEX 01 00:00:37 TRACK 02 AUDIO TITLE "Runaway Renee" PERFORMER "Scarecrow" INDEX 00 04:38:61 INDEX 01 04:39:62 TRACK 03 AUDIO TITLE "Waiting" PERFORMER "Scarecrow" INDEX 00 09:23:08 INDEX 01 09:24:67 TRACK 04 AUDIO TITLE "Brother Louie" PERFORMER "Scarecrow" INDEX 00 13:34:08 INDEX 01 13:35:10 TRACK 05 AUDIO TITLE "The Heart Is A Lonely Hunter" PERFORMER "Scarecrow" INDEX 00 18:00:31 INDEX 01 18:01:32 TRACK 06 AUDIO TITLE "Last Time For Love" PERFORMER "Scarecrow" INDEX 00 21:55:56 INDEX 01 21:57:30 TRACK 07 AUDIO TITLE "Sweet Sissy" PERFORMER "Scarecrow" INDEX 00 25:12:31 INDEX 01 25:14:05 TRACK 08 AUDIO TITLE "Mine All Mine" PERFORMER "Scarecrow" INDEX 01 28:52:15 TRACK 09 AUDIO TITLE "Bang Bang" PERFORMER "Scarecrow" INDEX 00 32:19:13 INDEX 01 32:21:62 TRACK 10 AUDIO TITLE "Love Love Me Do" PERFORMER "Scarecrow" INDEX 01 36:02:15


Трекер:  [ 27-Сен-2012 19:10 ]

  

Скачать .torrent

Размер .torrent файла 13 KB


Размер: 292 MB
Хэш (hash) релиза: f67543fbf1b1e08b682311fd12e9e5eaad04adfe

Еще никто не оставлял запись к записи скачать торрент Scarecrow - Scarecrow - 1992 . Будь первым!

!Обратная связь