Скачать через торрент музыку L.A. Guns - Covered In Guns - 2010, APE бесплатно без регистрации torrent

Если у вас наблюдаются проблемы со скриншотами, переходом по ссылками, скачиванием торрентов - проблемы в блокировщике рекламы AdBlock. #хорошегоДня!


Статистика раздачи
Размер:  374 MB   |    Зарегистрирован:  5 лет   |    .torrent скачан:  18 раз   |   
Раздают:  1  
   
Загрузка...
 
Автор Сообщение

Galfimbul

avatar Galfimbul


L.A. Guns / Covered In Guns
Жанр: Hard Rock
Страна-производитель диска: USA
Год издания: 2010
Издатель (лейбл): Deadline Music
Номер по каталогу: CLP 87743
Страна: USA
Аудиокодек: APE (*.ape)
Тип рипа: image+.cue
Битрейт аудио: lossless
Продолжительность: 48:32
Источник (релизер): Свой рип с оригинального CD
Наличие сканов в содержимом раздачи: 300dpi
Tracks:
01. Pour Some Sugar On Me (Def Leppard cover)
02. Rock & Roll All Night (KISS cover)
03. Crazy Bitch (Buckcherry cover)
04. Don't Fear The Reaper (Blue Oyster Cult cover)
05. Check My Brain (Alice In Chains cover)
06. Cry Little Sister (Theme from The Lost Boys) (Gerald McMann cover)
07. Just Between You And Me (April Wine cover)
08. Rock'n Me (Steve Miller Band cover)
09. Break My Stride (Matthew Wilder cover)
10. Let It Rock (Kevin Rudolf cover)
11. Let There Be Rock (AC\DC cover)
12. I Love Rock N' Roll (The Arrows cover)
13. Little Saint Nick (Beach Boys cover)

Personnel:
Rhil Lewis - vocals
Stasey Blades - guitars
Steve Riley - drums
Adam Hamilton - bass, keys

Exact Audio Copy V0.99 prebeta 4 from 23. January 2008

Отчёт EAC об извлечении, выполненном 26. июня 2012, 19:05

L.A. Guns / Covered In Guns

Дисковод: ASUS DRW-22B2L b Adapter: 0 ID: 0

Режим чтения : ДостоверностьИспользование точного потока : ДаОтключение кэша аудио : ДаИспользование указателей C2 : Нет

Коррекция смещения при чтении : 6Способность читать области Lead-in и Lead-out : НетЗаполнение пропущенных сэмплов тишиной : ДаУдаление блоков с тишиной в начале и конце : НетПри вычислениях CRC использовались нулевые сэмплы : ДаИнтерфейс : Встроенный Win32-интерфейс для Win NT/2000

Выходной формат : Внутренние WAV-операцииФормат сэмплов : 44.100 Гц; 16 бит; стерео

TOC извлечённого CD

Трек | Старт | Длительность | Начальный сектор | Конечный сектор --------------------------------------------------------------------- 1 | 0:00.00 | 4:23.52 | 0 | 19776 2 | 4:23.52 | 3:36.10 | 19777 | 35986 3 | 7:59.62 | 3:23.04 | 35987 | 51215 4 | 11:22.66 | 4:50.62 | 51216 | 73027 5 | 16:13.53 | 3:41.10 | 73028 | 89612 6 | 19:54.63 | 4:05.43 | 89613 | 108030 7 | 24:00.31 | 4:04.41 | 108031 | 126371 8 | 28:04.72 | 3:35.37 | 126372 | 142533 9 | 31:40.34 | 3:06.45 | 142534 | 156528 10 | 34:47.04 | 3:29.13 | 156529 | 172216 11 | 38:16.17 | 5:13.26 | 172217 | 195717 12 | 43:29.43 | 2:54.60 | 195718 | 208827 13 | 46:24.28 | 2:08.25 | 208828 | 218452

Характеристики диапазона извлечения и сообщения об ошибках

Выбранный диапазон

Имя файла C:\Documents and Settings\booddoom\Рабочий стол\Новая папка\L.A. Guns - Covered In Guns.wav

Пиковый уровень 97.6 % Качество диапазона 100.0 % CRC теста F880D52B CRC копии F880D52B Копирование... OK

Ошибок не произошло

AccurateRip: сводка

Трек 1 точное извлечение (доверие 2) [BFD1A304]Трек 2 точное извлечение (доверие 2) [FF56BA34]Трек 3 точное извлечение (доверие 2) [F8C167B6]Трек 4 точное извлечение (доверие 2) [3C521878]Трек 5 точное извлечение (доверие 2) [297DCF24]Трек 6 точное извлечение (доверие 2) [D12C0915]Трек 7 точное извлечение (доверие 2) [19F7FFB7]Трек 8 точное извлечение (доверие 2) [69742097]Трек 9 точное извлечение (доверие 2) [7565D290]Трек 10 точное извлечение (доверие 2) [358E17E2]Трек 11 точное извлечение (доверие 2) [4133B7FA]Трек 12 точное извлечение (доверие 2) [58B77770]Трек 13 точное извлечение (доверие 2) [AEE87E96]

Все треки извлечены точно

Конец отчёта
REM DISCID C90B600DREM COMMENT "ExactAudioCopy v0.99pb4"PERFORMER "L.A. Guns"TITLE "Covered In Guns"FILE "L.A. Guns - Covered In Guns.wav" WAVE TRACK 01 AUDIO TITLE "Pour Some Sugar On Me (Def Leppard cover)" PERFORMER "L.A. Guns" INDEX 01 00:00:00 TRACK 02 AUDIO TITLE "Rock & Roll All Night (KISS cover)" PERFORMER "L.A. Guns" INDEX 00 04:22:52 INDEX 01 04:23:52 TRACK 03 AUDIO TITLE "Crazy Bitch (Buckcherry cover)" PERFORMER "L.A. Guns" INDEX 00 07:58:62 INDEX 01 07:59:62 TRACK 04 AUDIO TITLE "Don't Fear The Reaper (Blue Цyster Cult cover)" PERFORMER "L.A. Guns" INDEX 00 11:21:66 INDEX 01 11:22:66 TRACK 05 AUDIO TITLE "Check My Brain (Alice In Chains cover)" PERFORMER "L.A. Guns" INDEX 00 16:12:53 INDEX 01 16:13:53 TRACK 06 AUDIO TITLE "Cry Little Sister (Theme from The Lost Boys) (Gerald McMann cover) " PERFORMER "L.A. Guns" INDEX 00 19:53:63 INDEX 01 19:54:63 TRACK 07 AUDIO TITLE "Just Between You And Me (April Wine cover)" PERFORMER "L.A. Guns" INDEX 00 23:59:31 INDEX 01 24:00:31 TRACK 08 AUDIO TITLE "Rock'n Me (Steve Miller Band cover)" PERFORMER "L.A. Guns" INDEX 00 28:03:72 INDEX 01 28:04:72 TRACK 09 AUDIO TITLE "Break My Stride (Matthew Wilder cover)" PERFORMER "L.A. Guns" INDEX 00 31:39:34 INDEX 01 31:40:34 TRACK 10 AUDIO TITLE "Let It Rock (Kevin Rudolf cover)" PERFORMER "L.A. Guns" INDEX 00 34:46:04 INDEX 01 34:47:04 TRACK 11 AUDIO TITLE "Let There Be Rock (AC\DC cover)" PERFORMER "L.A. Guns" INDEX 00 38:15:17 INDEX 01 38:16:17 TRACK 12 AUDIO TITLE "I Love Rock N' Roll (The Arrows cover)" PERFORMER "L.A. Guns" INDEX 00 43:28:43 INDEX 01 43:29:43 TRACK 13 AUDIO TITLE "Little Saint Nick (Beach Boys cover)" PERFORMER "L.A. Guns" INDEX 00 46:23:28 INDEX 01 46:24:28


Трекер:  [ 27-Сен-2012 19:10 ]

  

Скачать .torrent

Размер .torrent файла 15 KB


Размер: 374 MB
Хэш (hash) релиза: f3565195208fff2c67b78d6fddb69d7412330572

Еще никто не оставлял запись к записи скачать торрент L.A. Guns - Covered In Guns - 2010, APE . Будь первым!

!Обратная связь