Скачать через торрент музыку Tuff - What Comes Around Goes Around - 1991, APE бесплатно без регистрации torrent

Если у вас наблюдаются проблемы со скриншотами, переходом по ссылками, скачиванием торрентов - проблемы в блокировщике рекламы AdBlock. #хорошегоДня!


Статистика раздачи
Размер:  310 MB   |    Зарегистрирован:  5 лет 1 месяц   |    .torrent скачан:  14 раз   |   
Раздают:  1  
   
Загрузка...
 
Автор Сообщение

Galfimbul

avatar Galfimbul


Tuff / What Comes Around Goes Around

Жанр: Glam, Hard Rock
Страна-производитель диска: USA
Год издания: 1991
Издатель (лейбл): ATLANTIC
Номер по каталогу: 7 82244-2
Страна: USA
Аудиокодек: APE (*.ape)
Тип рипа: image+.cue
Битрейт аудио: lossless
Продолжительность: 37:29.50
Источник (релизер): Собственная коллекция
Наличие сканов в содержимом раздачи: да

Треклист:

01. Ruck A Pit Bridge
02. The All New Generation
03. I Hate Kissing You Good-Bye
04. Lonely Lucy
05. Ain't Worth A Dime
06. So Many Seasons
07. Forever Yours
08. Wake Me Up
09. Spit Like This
10. Good Guys Wear Black
Exact Audio Copy V1.0 beta 3 from 29. August 2011

Отчёт EAC об извлечении, выполненном 26. сентября 2012, 21:38

Tuff / What Comes Around Goes Around

Дисковод: Optiarc DVD RW AD-7280S Adapter: 1 ID: 0

Режим чтения : ДостоверностьИспользование точного потока : ДаОтключение кэша аудио : ДаИспользование указателей C2 : Нет

Коррекция смещения при чтении : 48Способность читать области Lead-in и Lead-out : НетЗаполнение пропущенных сэмплов тишиной : ДаУдаление блоков с тишиной в начале и конце : НетПри вычислениях CRC использовались нулевые сэмплы : ДаИнтерфейс : Встроенный Win32-интерфейс для Win NT/2000

Выходной формат : Внутренние WAV-операцииФормат сэмплов : 44.100 Гц; 16 бит; стерео

TOC извлечённого CD

Трек | Старт | Длительность | Начальный сектор | Конечный сектор --------------------------------------------------------------------- 1 | 0:00.32 | 3:44.35 | 32 | 16866 2 | 3:44.67 | 3:38.68 | 16867 | 33284 3 | 7:23.60 | 4:20.00 | 33285 | 52784 4 | 11:43.60 | 3:05.27 | 52785 | 66686 5 | 14:49.12 | 3:10.25 | 66687 | 80961 6 | 17:59.37 | 4:12.45 | 80962 | 99906 7 | 22:12.07 | 3:03.73 | 99907 | 113704 8 | 25:16.05 | 4:18.57 | 113705 | 133111 9 | 29:34.62 | 3:37.48 | 133112 | 149434 10 | 33:12.35 | 4:17.20 | 149435 | 168729

Характеристики диапазона извлечения и сообщения об ошибках

Выбранный диапазон

Имя файла G:\Мои раздачи\Tuff - 1991 What Comes Around Goes Around\ape\Tuff - What Comes Around Goes Around.wav

Пиковый уровень 94.6 % Скорость извлечения 3.7 X Качество диапазона 100.0 % CRC копии 0303D627 Копирование... OK

Ошибок не произошло

AccurateRip: сводка

Трек 1 : извлечено точно (доверие 12) [964E8CD8] (AR v1)Трек 2 : извлечено точно (доверие 13) [E9C634BD] (AR v1)Трек 3 : извлечено точно (доверие 12) [01B0A5C2] (AR v1)Трек 4 : извлечено точно (доверие 12) [73E765DF] (AR v1)Трек 5 : извлечено точно (доверие 12) [78F85775] (AR v1)Трек 6 : извлечено точно (доверие 12) [229BA1F5] (AR v1)Трек 7 : извлечено точно (доверие 12) [4D1F0D88] (AR v1)Трек 8 : извлечено точно (доверие 12) [F964F9F5] (AR v1)Трек 9 : извлечено точно (доверие 12) [B08ED01F] (AR v1)Трек 10 : извлечено точно (доверие 12) [43A2E436] (AR v1)

Все треки извлечены точно

Конец отчёта

==== Контрольная сумма отчёта 1E115B72A86F674488FC6A15368DC356E65E7598B94B897D658112A88C2CC2E8 ====
Jorge DeSaint - Guitars, Background Vocals
Michael Lean - Drums, Background Vocals
Stevie Rachelle - Vocals
Todd Chase - Bass, Background Vocals


Трекер:  [ 27-Сен-2012 19:10 ]

  

Скачать .torrent

Размер .torrent файла 13 KB


Размер: 310 MB
Хэш (hash) релиза: 3166b398f82e60260ed5a439b2955c183e36f849

Еще никто не оставлял запись к записи скачать торрент Tuff - What Comes Around Goes Around - 1991, APE . Будь первым!

!Обратная связь