Скачать через торрент музыку Holograf - 4 альбома - 2001-2010, FLAC бесплатно без регистрации torrent

Если у вас наблюдаются проблемы со скриншотами, переходом по ссылками, скачиванием торрентов - проблемы в блокировщике рекламы AdBlock. #хорошегоДня!


Статистика раздачи
Размер:  2.05 GB   |    Зарегистрирован:  5 лет   |    .torrent скачан:  16 раз   |   
Раздают:  1  
   
Загрузка...
 
Автор Сообщение

Galfimbul

avatar Galfimbul


Holograf / 4 альбома
Жанр: Rock
Страна-производитель диска: Romania
Год издания: 2001-2010
Страна: Romania
Аудиокодек: FLAC (*.flac)
Тип рипа: tracks+.cue
Битрейт аудио: lossless
Продолжительность: 04:53:56
Источник (релизер): другой трекер
Наличие сканов в содержимом раздачи: даАльбомы:
1. Holograf - Hai în luna (5:25)
2. Holograf - Am rămas doar noi (4:30)
3. Holograf - Sport extrem (3:50)
4. Holograf - Sunt un balcanic (3:41)
5. Holograf - Chiar dacă e greu (4:19)
6. Holograf - Romeo şi Julieta (3:57)
7. Holograf - Să nu-mi iei niciodată dragostea (5:04)
8. Holograf - Vine vineri (4:18)
9. Holograf - Inima mea nu e întreagă dacă nu eşti tu (2:43)
10. Holograf - Vine o zi... (5:51)
Продолжительность: 00:43:41
Exact Audio Copy V0.99 prebeta 5 from 4. May 2009

EAC extraction logfile from 6. June 2009, 11:54

Holograf / Holografica

Used drive : ATAPI DVD A DH20A3P Adapter: 0 ID: 1

Read mode : SecureUtilize accurate stream : YesDefeat audio cache : YesMake use of C2 pointers : No

Read offset correction : 6Overread into Lead-In and Lead-Out : NoFill up missing offset samples with silence : YesDelete leading and trailing silent blocks : NoNull samples used in CRC calculations : YesUsed interface : Installed external ASPI interfaceGap handling : Appended to previous track

Used output format : User Defined EncoderSelected bitrate : 320 kBit/sQuality : HighAdd ID3 tag : NoCommand line compressor : C:\Documents and Settings\Paoool\Desktop\Titrari\flac.exeAdditional command line options : -V -8 -T "artist=%a" -T "title=%t" -T "album=%g" -T "date=%y" -T "tracknumber=%n" -T "genre=%m" %s

TOC of the extracted CD

Track | Start | Length | Start sector | End sector --------------------------------------------------------- 1 | 0:00.05 | 5:25.12 | 5 | 24391 2 | 5:25.17 | 4:30.02 | 24392 | 44643 3 | 9:55.19 | 3:50.20 | 44644 | 61913 4 | 13:45.39 | 3:40.74 | 61914 | 78487 5 | 17:26.38 | 4:19.26 | 78488 | 97938 6 | 21:45.64 | 3:57.20 | 97939 | 115733 7 | 25:43.09 | 5:04.05 | 115734 | 138538 8 | 30:47.14 | 4:18.69 | 138539 | 157957 9 | 35:06.08 | 2:43.32 | 157958 | 170214 10 | 37:49.40 | 5:51.45 | 170215 | 196584

Track 1

Filename F:\Muzik\Ripuri\Holograf-Holografica-2001-MT\01.Holograf - Hai in luna.wav

Pre-gap length 0:00:02.06

Peak level 96.5 % Track quality 100.0 % Test CRC DB279E1B Copy CRC DB279E1B Accurately ripped (confidence 1) [FEC5BB2D] Copy OK

Track 2

Filename F:\Muzik\Ripuri\Holograf-Holografica-2001-MT\02.Holograf - Am ramas doar noi.wav

Pre-gap length 0:00:01.58

Peak level 97.8 % Track quality 100.0 % Test CRC 630B413A Copy CRC 630B413A Accurately ripped (confidence 1) [F3EE59F6] Copy OK

Track 3

Filename F:\Muzik\Ripuri\Holograf-Holografica-2001-MT\03.Holograf - Sport Extrem.wav

Pre-gap length 0:00:01.58

Peak level 96.6 % Track quality 100.0 % Test CRC 40E90F94 Copy CRC 40E90F94 Accurately ripped (confidence 1) [E5CC7F40] Copy OK

Track 4

Filename F:\Muzik\Ripuri\Holograf-Holografica-2001-MT\04.Holograf - Sunt un balcanic.wav

Pre-gap length 0:00:01.58

Peak level 97.9 % Track quality 100.0 % Test CRC E6CD516E Copy CRC E6CD516E Accurately ripped (confidence 1) [4E7723FE] Copy OK

Track 5

Filename F:\Muzik\Ripuri\Holograf-Holografica-2001-MT\05.Holograf - Chiar daca e greu.wav

Pre-gap length 0:00:01.58

Peak level 96.5 % Track quality 99.9 % Test CRC 71DE27CD Copy CRC 71DE27CD Accurately ripped (confidence 1) [14D9185B] Copy OK

Track 6

Filename F:\Muzik\Ripuri\Holograf-Holografica-2001-MT\06.Holograf - Romeo si julieta.wav

Pre-gap length 0:00:01.58

Peak level 96.5 % Track quality 100.0 % Test CRC FADC5622 Copy CRC FADC5622 Accurately ripped (confidence 1) [A2F4D503] Copy OK

Track 7

Filename F:\Muzik\Ripuri\Holograf-Holografica-2001-MT\07.Holograf - Sa nu-mi iei niciodata dragostea.wav

Pre-gap length 0:00:01.58

Peak level 98.2 % Track quality 100.0 % Test CRC 806465B5 Copy CRC 806465B5 Accurately ripped (confidence 1) [965FCD81] Copy OK

Track 8

Filename F:\Muzik\Ripuri\Holograf-Holografica-2001-MT\08.Holograf - Vine vineri.wav

Pre-gap length 0:00:01.58

Peak level 96.5 % Track quality 100.0 % Test CRC 88381A9E Copy CRC 88381A9E Accurately ripped (confidence 1) [FD9ECC93] Copy OK

Track 9

Filename F:\Muzik\Ripuri\Holograf-Holografica-2001-MT\09.Holograf - Inima mea nu e intreaga daca nu esti tu.wav

Pre-gap length 0:00:01.58

Peak level 100.0 % Track quality 100.0 % Test CRC B9BF4DC5 Copy CRC B9BF4DC5 Accurately ripped (confidence 1) [A1C1AB34] Copy OK

Track 10

Filename F:\Muzik\Ripuri\Holograf-Holografica-2001-MT\10.Holograf - Vine o zi....wav

Pre-gap length 0:00:01.58

Peak level 96.5 % Track quality 100.0 % Test CRC EC0AE2E5 Copy CRC EC0AE2E5 Accurately ripped (confidence 1) [F57659AA] Copy OK

All tracks accurately ripped

No errors occurred

End of status report
1. Holograf - Ştiu cine sunt (3:34)
2. Holograf - Suflet pereche (3:52)
3. Holograf - Dacă pot să zâmbesc (4:16)
4. Holograf - Pot sa fiu ce vrei (3:13)
5. Holograf - Înger de-aş fi (4:29)
6. Holograf - Dragostea mea (4:30)
7. Holograf - N-am iubit pe nimeni aşa cum te-am iubit pe tine (3:56)
8. Holograf - Fară ea (4:59)
9. Holograf - N-am ştiut (3:53)
10. Holograf - Rămas bun (4:31)
Продолжительность: 00:41:16
Exact Audio Copy V0.99 prebeta 5 from 4. May 2009

EAC extraction logfile from 13. November 2010, 0:24

Holograf / Pur si Simplu

Used drive : HL-DT-STDVD+-RW GSA-T21N Adapter: 0 ID: 0

Read mode : Secure
Utilize accurate stream : Yes
Defeat audio cache : Yes
Make use of C2 pointers : No

Read offset correction : 667
Overread into Lead-In and Lead-Out : No
Fill up missing offset samples with silence : Yes
Delete leading and trailing silent blocks : No
Null samples used in CRC calculations : Yes
Used interface : Native Win32 interface for Win NT & 2000
Gap handling : Appended to previous track

Used output format : User Defined Encoder
Selected bitrate : 320 kBit/s
Quality : High
Add ID3 tag : No
Command line compressor : C:\Program Files (x86)\Exact Audio Copy\Flac\flac.exe
Additional command line options : -V -8 -T "artist=%a" -T "title=%t" -T "album=%g" -T "date=%y" -T "tracknumber=%n" -T "genre=%m" %s

TOC of the extracted CD

Track | Start | Length | Start sector | End sector
---------------------------------------------------------
1 | 0:00.00 | 3:34.34 | 0 | 16083
2 | 3:34.34 | 3:52.07 | 16084 | 33490
3 | 7:26.41 | 4:16.59 | 33491 | 52749
4 | 11:43.25 | 3:13.68 | 52750 | 67292
5 | 14:57.18 | 4:29.20 | 67293 | 87487
6 | 19:26.38 | 4:30.18 | 87488 | 107755
7 | 23:56.56 | 3:56.60 | 107756 | 125515
8 | 27:53.41 | 4:59.17 | 125516 | 147957
9 | 32:52.58 | 3:53.42 | 147958 | 165474
10 | 36:46.25 | 4:31.48 | 165475 | 185847

Track 1

Filename D:\flac\Holograf_-_Pur si Simplu-Retail-2004-LOSSLESS\01-Holograf_-_Stiu cine sunt.wav

Pre-gap length 0:00:02.00

Peak level 96.6 %
Track quality 99.6 %
Test CRC 2727889A
Copy CRC E3C89242
Track not present in AccurateRip database
Copy OK

Track 2

Filename D:\flac\Holograf_-_Pur si Simplu-Retail-2004-LOSSLESS\02-Holograf_-_Suflet pereche.wav

Pre-gap length 0:00:02.00

Peak level 96.6 %
Track quality 99.9 %
Test CRC EF026E76
Copy CRC EF026E76
Track not present in AccurateRip database
Copy OK

Track 3

Filename D:\flac\Holograf_-_Pur si Simplu-Retail-2004-LOSSLESS\03-Holograf_-_Daca pot sa zambesc.wav

Pre-gap length 0:00:02.00

Peak level 96.6 %
Track quality 100.0 %
Test CRC C57A13AA
Copy CRC C57A13AA
Track not present in AccurateRip database
Copy OK

Track 4

Filename D:\flac\Holograf_-_Pur si Simplu-Retail-2004-LOSSLESS\04-Holograf_-_Pot sa fiu ce vrei.wav

Pre-gap length 0:00:02.00

Peak level 96.6 %
Track quality 99.9 %
Test CRC ADC83455
Copy CRC ADC83455
Track not present in AccurateRip database
Copy OK

Track 5

Filename D:\flac\Holograf_-_Pur si Simplu-Retail-2004-LOSSLESS\05-Holograf_-_Inger de-as fi.wav

Pre-gap length 0:00:02.00

Peak level 96.6 %
Track quality 100.0 %
Test CRC 9F59046C
Copy CRC 9F59046C
Track not present in AccurateRip database
Copy OK

Track 6

Filename D:\flac\Holograf_-_Pur si Simplu-Retail-2004-LOSSLESS\06-Holograf_-_Dragostea mea.wav

Pre-gap length 0:00:02.00

Peak level 96.6 %
Track quality 99.6 %
Test CRC 641DAD12
Copy CRC E8CAC56E
Track not present in AccurateRip database
Copy OK

Track 7

Filename D:\flac\Holograf_-_Pur si Simplu-Retail-2004-LOSSLESS\07-Holograf_-_N-am iubit pe nimeni asa cum te-am iubit pe tine.wav

Pre-gap length 0:00:02.00

Suspicious position 0:00:09 - 0:00:10

Peak level 96.6 %
Track quality 98.4 %
Test CRC 2B323C27
Copy CRC 24EEF175
Track not present in AccurateRip database
Copy finished

Track 8

Filename D:\flac\Holograf_-_Pur si Simplu-Retail-2004-LOSSLESS\08-Holograf_-_Fara ea.wav

Pre-gap length 0:00:02.00

Peak level 96.6 %
Track quality 100.0 %
Test CRC 2638AA1E
Copy CRC 2638AA1E
Track not present in AccurateRip database
Copy OK

Track 9

Filename D:\flac\Holograf_-_Pur si Simplu-Retail-2004-LOSSLESS\09-Holograf_-_N-am stiut.wav

Pre-gap length 0:00:02.00

Peak level 96.6 %
Track quality 100.0 %
Test CRC 60028FE2
Copy CRC 60028FE2
Track not present in AccurateRip database
Copy OK

Track 10

Filename D:\flac\Holograf_-_Pur si Simplu-Retail-2004-LOSSLESS\10-Holograf_-_Ramas bun.wav

Pre-gap length 0:00:02.00

Peak level 96.6 %
Track quality 99.9 %
Test CRC B3D6AEAA
Copy CRC B3D6AEAA
Track not present in AccurateRip database
Copy OK

None of the tracks are present in the AccurateRip database

There were errors

End of status report
01 - Primavara incepe cu tine
02 - Dimineata in alta viata
03 - Si dragostea mea)
04 - Fara ea
05 - Visul meu din zori
06 - N-am stiut
07 - Vine o zi
08 - Sa nu-mi iei niciodata dragostea
09 - Am ramas doar noi
10 - Doar o viata nu-mi ajunge
11 - Ramas bun
12 - Asa frumoasa
13 - Dincolo de nori
14 - Taina
15 - Ochii tai
16 - N-am iubit pe nimeni
Продолжительность: 01:13:13
Exact Audio Copy V0.99 prebeta 4 from 23. January 2008

EAC extraction logfile from 24. April 2009, 1:43

Holograf / Primavara incepe cu tine

Used drive : ASUS DRW-1608P3S Adapter: 0 ID: 1

Read mode : Secure
Utilize accurate stream : Yes
Defeat audio cache : Yes
Make use of C2 pointers : No

Read offset correction : 48
Overread into Lead-In and Lead-Out : No
Fill up missing offset samples with silence : Yes
Delete leading and trailing silent blocks : No
Null samples used in CRC calculations : Yes
Used interface : Native Win32 interface for Win NT & 2000
Gap handling : Appended to previous track

Used output format : User Defined Encoder
Selected bitrate : 128 kBit/s
Quality : High
Add ID3 tag : No
Command line compressor : K:\Program Files\Exact Audio Copy\Flac\flac.exe
Additional command line options : -V -8 -T "artist=%a" -T "title=%t" -T "album=%g" -T "date=%y" -T "tracknumber=%n" -T "genre=%m" %s

TOC of the extracted CD

Track | Start | Length | Start sector | End sector
---------------------------------------------------------
1 | 0:00.00 | 3:37.14 | 0 | 16288
2 | 3:37.14 | 5:01.12 | 16289 | 38875
3 | 8:38.26 | 4:32.37 | 38876 | 59312
4 | 13:10.63 | 4:35.47 | 59313 | 79984
5 | 17:46.35 | 5:12.54 | 79985 | 103438
6 | 22:59.14 | 3:55.35 | 103439 | 121098
7 | 26:54.49 | 5:51.44 | 121099 | 147467
8 | 32:46.18 | 5:03.33 | 147468 | 170225
9 | 37:49.51 | 4:29.53 | 170226 | 190453
10 | 42:19.29 | 4:12.26 | 190454 | 209379
11 | 46:31.55 | 4:35.62 | 209380 | 230066
12 | 51:07.42 | 4:37.07 | 230067 | 250848
13 | 55:44.49 | 3:37.12 | 250849 | 267135
14 | 59:21.61 | 6:08.62 | 267136 | 294797
15 | 65:30.48 | 3:51.62 | 294798 | 312184
16 | 69:22.35 | 3:54.05 | 312185 | 329739

Track 1

Filename C:\Rips\01-holograf_-_primavara_incepe_cu_tine-ind.wav.wav

Pre-gap length 0:00:02.00

Peak level 97.7 %
Track quality 100.0 %
Test CRC 34D00348
Copy CRC 34D00348
Copy OK

Track 2

Filename C:\Rips\02-holograf_-_dimineata_in_alta_viata-ind.wav.wav

Peak level 97.7 %
Track quality 99.9 %
Test CRC 56ADB2F0
Copy CRC 56ADB2F0
Copy OK

Track 3

Filename C:\Rips\03-holograf_-_si_dragostea_mea-ind.wav.wav

Peak level 97.7 %
Track quality 100.0 %
Test CRC 04B95C80
Copy CRC 04B95C80
Copy OK

Track 4

Filename C:\Rips\04-holograf_-_fara_ea-ind.wav

Peak level 97.7 %
Track quality 99.9 %
Test CRC 4FA967B8
Copy CRC 4FA967B8
Copy OK

Track 5

Filename C:\Rips\05-holograf_-_visul_meu_din_zori-ind.wav

Peak level 97.7 %
Track quality 100.0 %
Test CRC 796ABBDA
Copy CRC 796ABBDA
Copy OK

Track 6

Filename C:\Rips\06-holograf_-_n-am_stiut-ind.wav

Peak level 97.7 %
Track quality 100.0 %
Test CRC 2A83FF6B
Copy CRC 2A83FF6B
Copy OK

Track 7

Filename C:\Rips\07-holograf_-_vine_o_zi-ind.wav

Peak level 97.7 %
Track quality 100.0 %
Test CRC 132E5A4E
Copy CRC 132E5A4E
Copy OK

Track 8

Filename C:\Rips\08-holograf_-_sa_nu-mi_iei_niciodata_dragostea-ind.wav

Peak level 97.7 %
Track quality 100.0 %
Test CRC 30E68AC5
Copy CRC 30E68AC5
Copy OK

Track 9

Filename C:\Rips\09-holograf_-_am_ramas_doar_noi-ind.wav

Peak level 97.7 %
Track quality 100.0 %
Test CRC 1B7E60A5
Copy CRC 1B7E60A5
Copy OK

Track 10

Filename C:\Rips\10-holograf_-_doar_o_viata_nu-mi_ajunge-ind.wav

Peak level 97.7 %
Track quality 99.9 %
Test CRC 16449F93
Copy CRC 16449F93
Copy OK

Track 11

Filename C:\Rips\11-holograf_-_ramas_bun-ind.wav

Peak level 97.7 %
Track quality 100.0 %
Test CRC 74419841
Copy CRC 74419841
Copy OK

Track 12

Filename C:\Rips\12-holograf_-_asa_frumoasa-ind.wav

Peak level 97.7 %
Track quality 100.0 %
Test CRC 3C2F3082
Copy CRC 3C2F3082
Copy OK

Track 13

Filename C:\Rips\13-holograf_-_dincolo_de_nori-ind.wav

Peak level 97.7 %
Track quality 99.9 %
Test CRC 370DB606
Copy CRC 370DB606
Copy OK

Track 14

Filename C:\Rips\14-holograf_-_taina-ind.wav

Peak level 97.7 %
Track quality 100.0 %
Test CRC 992C7AB2
Copy CRC 992C7AB2
Copy OK

Track 15

Filename C:\Rips\15-holograf_-_ochii_tai-ind.wav

Peak level 97.7 %
Track quality 100.0 %
Test CRC 31FF25C7
Copy CRC 31FF25C7
Copy OK

Track 16

Filename C:\Rips\16-holograf_-_n-am_iubit_pe_nimeni-ind.wav

Peak level 97.7 %
Track quality 100.0 %
Test CRC FB28867E
Copy CRC FB28867E
Copy OK

No errors occurred

End of status report


CD 1:

01. Balada controlorului [3:30]
02. Visul meu din zori [5:12]
03. Singur pe drum [4:42]
04. Suntem aici doar pentru voi [3:37]
05. Singurătatea astronautului [4:21]
06. Şi băieţii plâng [4:16]
07. Raza de lumină [5:00]
08. Banii vorbesc [4:34]
09. Stai în poala mea [7:30]
10. Vreau o minune [4:24]
11. Hai in Lună! [5:21]
12. Ţi-am dat un inel [4:56]
13. Dincolo de nori [3:33]
14. Dimineaţa [4:56]
15. Taina [6:05]

CD 2:

01. Undeva departe [3:37]
02. Umbre pe cer [5:36]
03. Fără ea [4:33]
04. Vino [3:57]
05. Suflet pereche [3:50]
06. Să nu-im iei niciodată dragostea [4:59]
07. Vine o zi [5:47]
08. Inima mea [2:41]
09. Te voi iubi mereu [4:30]
10. Ştiu cine sunt [3:32]
11. N-am iubit [3:54]
12. Păsări de fum [5:38]
13. Primavara începe cu tine [3:35]
14. Aşa frumoasă [4:33]
15. N-am ştiut [3:51]
Продолжительность: 01:15:46
Exact Audio Copy V0.99 prebeta 5 from 4. May 2009

EAC extraction logfile from 3. June 2010, 20:12

Holograf / Jurnalul national - CD1

Used drive : TSSTcorpCDDVDW SH-S223F Adapter: 1 ID: 0

Read mode : Secure
Utilize accurate stream : Yes
Defeat audio cache : Yes
Make use of C2 pointers : No

Read offset correction : 6
Overread into Lead-In and Lead-Out : No
Fill up missing offset samples with silence : Yes
Delete leading and trailing silent blocks : Yes
Null samples used in CRC calculations : Yes
Used interface : Native Win32 interface for Win NT & 2000
Gap handling : Not detected, thus appended to previous track

Used output format : User Defined Encoder
Selected bitrate : 1024 kBit/s
Quality : High
Add ID3 tag : No
Command line compressor : C:\Program Files (x86)\FLAC\flac.exe
Additional command line options : -V -8 -T "artist=%a" -T "title=%t" -T "album=%g" -T "date=%y" -T "tracknumber=%n" -T "genre=%m" %s

TOC of the extracted CD

Track | Start | Length | Start sector | End sector
---------------------------------------------------------
1 | 0:00.00 | 3:32.18 | 0 | 15917
2 | 3:32.18 | 5:12.33 | 15918 | 39350
3 | 8:44.51 | 4:44.28 | 39351 | 60678
4 | 13:29.04 | 3:38.59 | 60679 | 77087
5 | 17:07.63 | 4:20.51 | 77088 | 96638
6 | 21:28.39 | 4:15.45 | 96639 | 115808
7 | 25:44.09 | 4:59.38 | 115809 | 138271
8 | 30:43.47 | 4:34.04 | 138272 | 158825
9 | 35:17.51 | 7:29.67 | 158826 | 192567
10 | 42:47.43 | 4:26.07 | 192568 | 212524
11 | 47:13.50 | 5:23.36 | 212525 | 236785
12 | 52:37.11 | 4:58.32 | 236786 | 259167
13 | 57:35.43 | 3:35.17 | 259168 | 275309
14 | 61:10.60 | 4:58.05 | 275310 | 297664
15 | 66:08.65 | 6:04.71 | 297665 | 325035

Track 1

Filename C:\Holograf\Jurnalul national - CD1\01 - Balada controlorului.wav

Peak level 99.9 %
Track quality 100.0 %
Test CRC 81523229
Copy CRC 81523229
Copy OK

Track 2

Filename C:\Holograf\Jurnalul national - CD1\02 - Visul meu dir zori.wav

Peak level 97.7 %
Track quality 100.0 %
Test CRC 144F08B6
Copy CRC 144F08B6
Copy OK

Track 3

Filename C:\Holograf\Jurnalul national - CD1\03 - Singur pe drum.wav

Peak level 100.0 %
Track quality 100.0 %
Test CRC 67A5C48A
Copy CRC 67A5C48A
Copy OK

Track 4

Filename C:\Holograf\Jurnalul national - CD1\04 - Suntem aici doar pentru voi.wav

Peak level 100.0 %
Track quality 100.0 %
Test CRC 29DE88A9
Copy CRC 29DE88A9
Copy OK

Track 5

Filename C:\Holograf\Jurnalul national - CD1\05 - Singuratatea astronautului.wav

Peak level 100.0 %
Track quality 99.9 %
Test CRC EC7E15D5
Copy CRC EC7E15D5
Copy OK

Track 6

Filename C:\Holograf\Jurnalul national - CD1\06 - Si baietii plang.wav

Peak level 100.0 %
Track quality 100.0 %
Test CRC F824467D
Copy CRC F824467D
Copy OK

Track 7

Filename C:\Holograf\Jurnalul national - CD1\07 - Raza de lumina.wav

Peak level 94.8 %
Track quality 99.9 %
Test CRC FB1CA2EC
Copy CRC FB1CA2EC
Copy OK

Track 8

Filename C:\Holograf\Jurnalul national - CD1\08 - Banii vorbesc.wav

Peak level 92.2 %
Track quality 100.0 %
Test CRC 470966B5
Copy CRC 470966B5
Copy OK

Track 9

Filename C:\Holograf\Jurnalul national - CD1\09 - Stai in poala mea.wav

Peak level 99.9 %
Track quality 100.0 %
Test CRC BF9661BB
Copy CRC BF9661BB
Copy OK

Track 10

Filename C:\Holograf\Jurnalul national - CD1\10 - Vreau o minune.wav

Peak level 86.7 %
Track quality 100.0 %
Test CRC 8C0FF1AF
Copy CRC 8C0FF1AF
Copy OK

Track 11

Filename C:\Holograf\Jurnalul national - CD1\11 - Hai in Luna!.wav

Peak level 96.5 %
Track quality 100.0 %
Test CRC C62A3437
Copy CRC C62A3437
Copy OK

Track 12

Filename C:\Holograf\Jurnalul national - CD1\12 - Ti-am dat un inel.wav

Peak level 88.0 %
Track quality 100.0 %
Test CRC 20D9F639
Copy CRC 20D9F639
Copy OK

Track 13

Filename C:\Holograf\Jurnalul national - CD1\13 - Dincolo de nori.wav

Peak level 97.7 %
Track quality 100.0 %
Test CRC 82A8E002
Copy CRC 82A8E002
Copy OK

Track 14

Filename C:\Holograf\Jurnalul national - CD1\14 - Dimineata.wav

Peak level 96.6 %
Track quality 100.0 %
Test CRC A657DEC5
Copy CRC A657DEC5
Copy OK

Track 15

Filename C:\Holograf\Jurnalul national - CD1\15 - Taina.wav

Peak level 97.7 %
Track quality 99.9 %
Test CRC C0A61814
Copy CRC C0A61814
Copy OK

No errors occurred

End of status report
Exact Audio Copy V0.99 prebeta 5 from 4. May 2009

EAC extraction logfile from 3. June 2010, 21:03

Holograf / Jurnalul national - CD2

Used drive : TSSTcorpCDDVDW SH-S223F Adapter: 1 ID: 0

Read mode : Secure
Utilize accurate stream : Yes
Defeat audio cache : Yes
Make use of C2 pointers : No

Read offset correction : 6
Overread into Lead-In and Lead-Out : No
Fill up missing offset samples with silence : Yes
Delete leading and trailing silent blocks : Yes
Null samples used in CRC calculations : Yes
Used interface : Native Win32 interface for Win NT & 2000
Gap handling : Not detected, thus appended to previous track

Used output format : User Defined Encoder
Selected bitrate : 1024 kBit/s
Quality : High
Add ID3 tag : No
Command line compressor : C:\Program Files (x86)\FLAC\flac.exe
Additional command line options : -V -8 -T "artist=%a" -T "title=%t" -T "album=%g" -T "date=%y" -T "tracknumber=%n" -T "genre=%m" %s

TOC of the extracted CD

Track | Start | Length | Start sector | End sector
---------------------------------------------------------
1 | 0:00.00 | 3:36.55 | 0 | 16254
2 | 3:36.55 | 5:38.08 | 16255 | 41612
3 | 9:14.63 | 4:33.48 | 41613 | 62135
4 | 13:48.36 | 3:58.60 | 62136 | 80045
5 | 17:47.21 | 3:52.09 | 80046 | 97454
6 | 21:39.30 | 5:01.25 | 97455 | 120054
7 | 26:40.55 | 5:49.45 | 120055 | 146274
8 | 32:30.25 | 2:41.10 | 146275 | 158359
9 | 35:11.35 | 4:31.50 | 158360 | 178734
10 | 39:43.10 | 3:34.22 | 178735 | 194806
11 | 43:17.32 | 3:55.67 | 194807 | 212498
12 | 47:13.24 | 5:40.15 | 212499 | 238013
13 | 52:53.39 | 3:37.13 | 238014 | 254301
14 | 56:30.52 | 4:35.07 | 254302 | 274933
15 | 61:05.59 | 3:51.35 | 274934 | 292293

Track 1

Filename C:\Holograf\Jurnalul national - CD2\01 - undeva departe.wav

Peak level 92.9 %
Track quality 100.0 %
Test CRC BA677D3D
Copy CRC BA677D3D
Copy OK

Track 2

Filename C:\Holograf\Jurnalul national - CD2\02 - umbre pe cer.wav

Peak level 94.8 %
Track quality 100.0 %
Test CRC 289D3BB7
Copy CRC 289D3BB7
Copy OK

Track 3

Filename C:\Holograf\Jurnalul national - CD2\03 - fara ea.wav

Peak level 97.7 %
Track quality 100.0 %
Test CRC B7F0AF67
Copy CRC B7F0AF67
Copy OK

Track 4

Filename C:\Holograf\Jurnalul national - CD2\04 - vino.wav

Peak level 97.3 %
Track quality 100.0 %
Test CRC A5F50A80
Copy CRC A5F50A80
Copy OK

Track 5

Filename C:\Holograf\Jurnalul national - CD2\05 - suflet pereche.wav

Peak level 96.6 %
Track quality 99.9 %
Test CRC EB0BD6D1
Copy CRC EB0BD6D1
Copy OK

Track 6

Filename C:\Holograf\Jurnalul national - CD2\06 - sa nu-im iei niciodata dragostea.wav

Peak level 97.7 %
Track quality 100.0 %
Test CRC 8B0CE6D1
Copy CRC 8B0CE6D1
Copy OK

Track 7

Filename C:\Holograf\Jurnalul national - CD2\07 - vine o zi.wav

Peak level 97.7 %
Track quality 100.0 %
Test CRC 53119CFB
Copy CRC 53119CFB
Copy OK

Track 8

Filename C:\Holograf\Jurnalul national - CD2\08 - inima mea.wav

Peak level 100.0 %
Track quality 100.0 %
Test CRC 332E4A9A
Copy CRC 332E4A9A
Copy OK

Track 9

Filename C:\Holograf\Jurnalul national - CD2\09 - te voi iube mereu.wav

Peak level 98.0 %
Track quality 100.0 %
Test CRC 3FF189C4
Copy CRC 3FF189C4
Copy OK

Track 10

Filename C:\Holograf\Jurnalul national - CD2\10 - stiu cine sunt.wav

Peak level 96.6 %
Track quality 100.0 %
Test CRC 2BA4CEEC
Copy CRC 2BA4CEEC
Copy OK

Track 11

Filename C:\Holograf\Jurnalul national - CD2\11 - n-am iubit.wav

Peak level 97.7 %
Track quality 100.0 %
Test CRC A76A0779
Copy CRC A76A0779
Copy OK

Track 12

Filename C:\Holograf\Jurnalul national - CD2\12 - pasari de fum.wav

Peak level 100.0 %
Track quality 100.0 %
Test CRC D747C873
Copy CRC D747C873
Copy OK

Track 13

Filename C:\Holograf\Jurnalul national - CD2\13 - primavara incepe cu tine.wav

Peak level 97.7 %
Track quality 99.9 %
Test CRC 4BE89549
Copy CRC 4BE89549
Copy OK

Track 14

Filename C:\Holograf\Jurnalul national - CD2\14 - asa frumoasa.wav

Peak level 97.7 %
Track quality 100.0 %
Test CRC 91ABE5A4
Copy CRC 91ABE5A4
Copy OK

Track 15

Filename C:\Holograf\Jurnalul national - CD2\15 - n-am stiut.wav

Peak level 97.7 %
Track quality 99.9 %
Test CRC 41CB4F7E
Copy CRC 41CB4F7E
Copy OK

No errors occurred

End of status report
Состав группы:

Edi Petroşel, Tino Furtuna, Dan Bittman, Iulian Vrabete, Romeo Dediu

Группа образована в 1978 году в Бухаресте.

Некоторое время спустя после образования первого состава в нее вошли еще два музыканта – Эдди Петрошел (Edi Petrosel, ударные), который заменил Бориса Петроффа (Boris Petroff) и Антониу Фуртунэ (Antoniu Fortuna, клавишные). На раннем периоде становления состав менялся очень часто, но неизменным оставался формальный лидер группы – Михай Покорски (Mihai Pocorschi). Первый успех пришел в 1979 году, когда они получили приз на студенческом фестивале в известном клубе «Club A».

В 1983 году три основных участника группы – Михай Покорски, Эди Петрошел, Антониу Фуртунэ – вместе с временными музыкантами из города Крайова – Габриэлем Котабицем ( Gabriel Cotabita) и Никосом Темистоклом (Nikos Temistocle) – записали дебютный альбом Holograf 1. Стиль в котором они работали, можно охарактеризовать как оригинальный синтез электронного звучания и классического хард-рока под влиянием «новой волны». Вообще, в начале 80-х не только в Румынии, но и во всем мире шел настоящий бум синтезаторного рока, и Holograf, возможно, стали пионерами этого стиля в Румынии.

В 1987 году ансамбль выпустил свою вторую пластинку Holograf 2, которая содержала в себе ряд переделанных композиций, исполненных уже с характерной энергетикой хэви-метал. Не вызывает сомнений, что своему обновленному звучанию группа обязана таким новым приглашенным музыкантам, как Дан Биттман (Dan Bittman, вокал), Марти Попеску (Marti Popescu, бас-гитара) и Нуцу Олтевну (Nutu Olteanu, ex-Iris, гитара). В целом, альбом содержит добротный помп-роковый материал с оригинальными мелодиями и темами. Пожалуй, он и является лучшим произведением на их раннем отрезке пути.

Если не считать замену бас-гитариста Марти Попеску на Юлиана Врабете (Ulian Vrabete), то в ближайшие годы изменений в составе не было. Как результат популярности вскоре началось большое турне по стране, а критики порой стали называть их «лучшей группой Румынии».

В 1988 году вышел очередной альбом Holograf 3, проданный тиражом 200000 экземпляров (к слову, для маленькой и бедной тогдашней Румынии – тираж просто огромный!). Чтобы закрепить этот успех, формация отправилась с концертами к своим «собратьям» по социалистическому лагерю, в числе которых были Болгария, Восточная Германия, Советский Союз и Польша. Большой успех имел и миньон Holograf 4, на котором была записана одна из самых известных песен – «Oriunde Te Vei Afla».

В начале 1990 года новый гитарист Флорин Океску (Florin Ochescu) сменил Нуцу Олтеану.

Румынская революция открыла двери музыкантам для гастролей в капиталистические страны. Там они получили первый опыт сотрудничества с профессиональной музыкальной индустрией. В результате появился англоязычный альбом Word Full Of Lies (1993 год) – плод работы с итальянской звукозаписывающей фирмой «Captain Records). Точно не известно, к кому обращались музыканты, имея ввиду название «Мир полный лжи», но уж точно не к «западной» музыкальной индустрии. На пластинке есть несколько уже знакомых композиций, правда переработанных в типично коммерческом, местами просто кошмарном и не очень выразительном поп-хард-роке, характерном для молодежных групп 80-х. Впрочем, то же самое хочется сказать и о новых песнях группы.

В 1983 году новый гитарист Ромео Дедиу (Romeo Dediu) занял место покинувшего группу Флорина Океску, покончив, таким образом, на долгие годы с проблемами в составе, не считая поддерживающих музыкантов.

Далее последовали несколько более интересных пластинок, в числе которых первой и пока единственный концертный альбом 69% Unplugged, а также Supersonic. Наибольший коммерческий успех сопутствовал поздним проектам, особенно альбому Holografica, количество проданных копий которого, только за первые 2 недели достигло 100000-й отметки.

К сожалению, с годами музыканты утратили оригинальную стилистику 80-х. Сейчас они представляют из себя добротную, но не особо оригинальную единицу коммерческого поп-хард-рока. Одновременно нельзя не отметить явный профессиональный рост музыкантов (сказался в положительную сторону опыт работы с заграничными компаниями), в связи с чем ансамбль уже звучит совсем «фирменно» по западным стандартам.


Трекер:  [ 27-Сен-2012 19:09 ]

  

Скачать .torrent

Размер .torrent файла 19 KB


Размер: 2.05 GB
Хэш (hash) релиза: 06a1b73318a64ea5d842f58bdda46b8a13442f91

Еще никто не оставлял запись к записи скачать торрент Holograf - 4 альбома - 2001-2010, FLAC . Будь первым!

!Обратная связь